На всех торрентах на трекере установлена скидка на скачивание в размере 100 процентов(а).
 Возможность скачивания торрента НЕ зависит от ограничений при низком ратио, низком аплоаде, требуемом ратио или требуемом аплоаде.


Начать новую тему Ответить на тему
Статистика раздачи
Размер: 7.37 ГБ | Добавлен: 31 янв 2015, 11:04 | Скачали: 75
Сидеров: 59  [0 байт/сек]    Личеров: 106  [0 байт/сек]
Пред. тема | След. тема 

Автор
Сообщение

СообщениеДобавлено: 31 янв 2015, 11:04 

Название: Маленькая смерть
Оригинальное название: The Little Death
Год выпуска: 2014
Жанр: комедия
Режиссер: Джошуа Лосон
В ролях: Бояна Новакович, Джошуа Лосон, Дэймон Херриман, Бен Лосон, Тэсним Рок, Лиза МакКьюн, Лейчи Халм, Кейт Малвэйни, Патрик Браммалль, Т.Дж. Пауэр
О фильме: Наш герой никак не может построить свою личную жизнь а все потому, что когда-то он услышал нелепую информацию, о том что мужчина занимаясь с женщиной любовью, причиняет ей немыслимые страдания. Он с тех самых пор живет в воздержании, но вот странность, все его друзья давно женаты и кажется, женщины, живущие с ними рядом, счастливы. Однажды близкий приятель вызывает нашего героя на откровенный разговор, и привлекает к нему свою жену. Вместе они объясняют парню, что близость – не боль, а истинное наслаждение и ее не стоит бояться. Быть может, наш герой теперь что-то изменит?

Выпущено: Австралия
Продолжительность: 01:36:22
Перевод: Любительский (одноголосый, закадровый) - datynet
Файл
Качество: BDRip 1080p
Формат: MKV
Видео: MPEG4/AVC, 9860 Кбит/сек, 1920х800 (2.40:1), 24.000 кадра/сек
Аудио 1: AC3, 6 каналов, 448 Кбит/сек | Русский
Аудио 2: AC3, 6 каналов, 640 Кбит/сек | Английский
Субтитры: Английские (Full, SDH)
Навигация по главам: Есть
Общее
Уникальный идентификатор : 209138454613516572658726497030270772668 (0x9D5699E9F792371F8BB8E6C6643265BC)
Полное имя : The Little Death. (2014) BDRip 1080p.mkv
Формат : Matroska
Версия формата : Version 2
Размер файла : 7,37 Гбайт
Продолжительность : 1 ч. 36 м.
Общий поток : 11,0 Мбит/сек
Название фильма : The Little Death. 2014
Дата кодирования : UTC 2015-01-30 21:35:03
Программа кодирования : mkvmerge v5.8.0 ('No Sleep / Pillow') built on Sep 2 2012 15:37:04
Библиотека кодирования : libebml v1.2.3 + libmatroska v1.3.0
Видео
Идентификатор : 1
Формат : AVC
Формат/Информация : Advanced Video Codec
Профиль формата : High@L4.1
Параметр CABAC формата : Да
Параметр ReFrames формата : 5 кадров
Идентификатор кодека : V_MPEG4/ISO/AVC
Продолжительность : 1 ч. 36 м.
Битрейт : 9860 Кбит/сек
Ширина : 1920 пикселей
Высота : 800 пикселей
Соотношение сторон : 2,40:1
Режим частоты кадров : Постоянный
Частота кадров : 24,000 кадра/сек
Цветовое пространство : YUV
Субдискретизация насыщенности : 4:2:0
Битовая глубина : 8 бит
Тип развёртки : Прогрессивная
Бит/(Пиксели*Кадры) : 0.267
Размер потока : 6,49 Гбайт (88%)
Заголовок : CADAVER
Библиотека кодирования : x264 core 144 r2525 40bb568
Настройки программы : cabac=1 / ref=5 / deblock=1:-3:-3 / analyse=0x3:0x113 / me=umh / subme=11 / psy=1 / psy_rd=1.05:0.00 / mixed_ref=1 / me_range=36 / chroma_me=1 / trellis=2 / 8x8dct=1 / cqm=0 / deadzone=21,11 / fast_pskip=0 / chroma_qp_offset=-2 / threads=12 / lookahead_threads=3 / sliced_threads=0 / nr=0 / decimate=0 / interlaced=0 / bluray_compat=0 / constrained_intra=0 / bframes=10 / b_pyramid=2 / b_adapt=2 / b_bias=0 / direct=3 / weightb=1 / open_gop=0 / weightp=2 / keyint=250 / keyint_min=24 / scenecut=40 / intra_refresh=0 / rc=2pass / mbtree=0 / bitrate=9860 / ratetol=1.0 / qcomp=0.60 / qpmin=0 / qpmax=69 / qpstep=4 / cplxblur=20.0 / qblur=0.5 / ip_ratio=1.40 / pb_ratio=1.30 / aq=1:0.60
Язык : English
Default : Да
Forced : Нет
Аудио #1
Идентификатор : 2
Формат : AC-3
Формат/Информация : Audio Coding 3
Расширение режима : CM (complete main)
Параметр Endianness формата : Big
Идентификатор кодека : A_AC3
Продолжительность : 1 ч. 36 м.
Вид битрейта : Постоянный
Битрейт : 448 Кбит/сек
Каналы : 6 каналов
Расположение каналов : Front: L C R, Side: L R, LFE
Частота : 48,0 КГц
Битовая глубина : 16 бит
Метод сжатия : С потерями
Размер потока : 309 Мбайт (4%)
Заголовок : L1 | datynet
Язык : Russian
Default : Да
Forced : Нет
Аудио #2
Идентификатор : 3
Формат : AC-3
Формат/Информация : Audio Coding 3
Расширение режима : CM (complete main)
Параметр Endianness формата : Big
Идентификатор кодека : A_AC3
Продолжительность : 1 ч. 36 м.
Вид битрейта : Постоянный
Битрейт : 640 Кбит/сек
Каналы : 6 каналов
Расположение каналов : Front: L C R, Side: L R, LFE
Частота : 48,0 КГц
Битовая глубина : 16 бит
Метод сжатия : С потерями
Размер потока : 441 Мбайт (6%)
Заголовок : Original
Язык : English
Default : Нет
Forced : Нет
Текст #1
Идентификатор : 4
Формат : UTF-8
Идентификатор кодека : S_TEXT/UTF8
Идентификатор кодека/Информация : UTF-8 Plain Text
Заголовок : Full
Язык : English
Default : Нет
Forced : Нет
Текст #2
Идентификатор : 5
Формат : UTF-8
Идентификатор кодека : S_TEXT/UTF8
Идентификатор кодека/Информация : UTF-8 Plain Text
Заголовок : SDH
Язык : English
Default : Нет
Forced : Нет
Меню
00:00:00.000 : en:00:00:00.000
00:08:38.583 : en:00:08:38.583
00:16:23.125 : en:00:16:23.125
00:25:36.833 : en:00:25:36.833
00:31:24.083 : en:00:31:24.083
00:42:40.292 : en:00:42:40.292
00:50:13.083 : en:00:50:13.083
01:00:38.417 : en:01:00:38.417
01:07:47.750 : en:01:07:47.750
01:16:12.417 : en:01:16:12.417
01:24:58.250 : en:01:24:58.250
01:30:59.750 : en:01:30:59.750


Релиз от:
загрузка...
Правила, инструкции, FAQ!!!
Торрент  Добавлен [31 янв 2015, 11:04] Скачать торрент
Скачать торрент
[ Размер 19.13 КБ / Просмотров 13 ]

Статус
Проверен 
 
Размер  7.37 ГБ
Приватный: Нет (DHT включён)
.torrent скачан  75
Как залить торрент? | Как скачать Torrent? | Как смотреть и слушать онлайн?  


     Отправить личное сообщение
   
Страница 1 из 1
Показать сообщения за:  Поле сортировки  
Начать новую тему Ответить на тему

   Похожие торренты   Автор   Ответы   Просмотры   Последнее сообщение 
В этой теме нет новых непрочитанных сообщений. Скачать торрент Смерть ей к лицу / Death Becomes Her (1992) BDRip-AVC | P, A

в форуме 720p | 1080p, Размер: 3.39 ГБ, Здоровье: 0%

Anonymous

0
0|0

34
0

25 янв 2014, 10:12

Anonymous Перейти к последнему сообщению

В этой теме нет новых непрочитанных сообщений. Скачать торрент Смерть ей к лицу / Death Becomes Her (1992) BDRip 720p | P, A

в форуме 720p | 1080p, Размер: 7 ГБ, Здоровье: 0%

Anonymous

0
0|0

30
0

24 янв 2014, 19:20

Anonymous Перейти к последнему сообщению

В этой теме нет новых непрочитанных сообщений. Скачать торрент Смерть на похоронах / Death at a Funeral (Нил Лабут / Neil LaBute) [2010, США, комедия, BDRip]

в форуме Комедии, Размер: 1.74 ГБ, Здоровье: 0%

Anonymous

0
0|0

46
0

16 апр 2014, 07:49

Anonymous Перейти к последнему сообщению

В этой теме нет новых непрочитанных сообщений. Скачать торрент Проверен Смерть супермена / Hollywoodland (2006) BDRip 1080p | P, A

в форуме 720p | 1080p, Размер: 8.81 ГБ, Здоровье: 100%

Гость

0
18|16

380
87

15 ноя 2015, 23:53

Гость Перейти к последнему сообщению

В этой теме нет новых непрочитанных сообщений. Скачать торрент Проверен Маленькая смерть / The Little Death (2014) HDRip | L1

в форуме Комедии, Размер: 1.43 ГБ, Здоровье: 76%

Anonymous

0
154|202

76
87

30 янв 2015, 17:55

Anonymous Перейти к последнему сообщению



Сейчас этот форум просматривают: нет зарегистрированных пользователей и гости: 4


Вы не можете начинать темы
Вы не можете отвечать на сообщения
Вы не можете редактировать свои сообщения
Вы не можете удалять свои сообщения
Вы не можете добавлять вложения

Перейти:  

!ВНИМАНИЕ!
 Ресурс не предоставляет электронные версии произведений, а занимается лишь коллекционированием и каталогизацией ссылок, присылаемых и публикуемых на форуме нашими читателями. Если вы являетесь правообладателем какого-либо представленного материала и не желаете чтобы ссылка на него находилась в нашем каталоге, свяжитесь с нами и мы незамедлительно удалим её. Файлы для обмена на трекере предоставлены пользователями сайта, и администрация не несёт ответственности за их содержание. Просьба не заливать файлы, защищенные авторскими правами, а также файлы нелегального содержания!