На всех торрентах на трекере установлена скидка на скачивание в размере 100 процентов(а).
 Возможность скачивания торрента НЕ зависит от ограничений при низком ратио, низком аплоаде, требуемом ратио или требуемом аплоаде.


Начать новую тему Ответить на тему
Статистика раздачи
Размер: 4.04 ГБ | Добавлен: 31 янв 2015, 00:07 | Скачали: 266
Сидеров: 24  [0 байт/сек]    Личеров: 12  [0 байт/сек]
Пред. тема | След. тема 

Автор
Сообщение

СообщениеДобавлено: 31 янв 2015, 00:07 

Название: И твою маму тоже
Оригинальное название: Y tu mamá también
Год выхода: 2001
Жанр: Комедия, мелодрама, драма
Режиссер: Альфонсо Куарон / Alfonso Cuarón
В ролях: Марибель Верду, Гаэль Гарсия Берналь, Диего Луна, Диана Брачо, Эмилио Эчеварриа, Ана Лопез Меркадо, Мариа Аура, Андрес Алмейда, Вероника Лангер, Артуро Риос, Марта Аура, Хуан Карлос Ремолина, Сильверио Палакиос

О фильме:
Двое друзей, не обремененных моральными принципами и мучимые подростковыми гормонами, ищут под жарким солнцем Мексики приключений. Ищут, — и находят. Познакомившись на празднике с испанской красоткой Луизой, чье сердце безнадежно разбито, они приглашают ее отправиться в поездку на мифический пляж с романтическим названием «Небесные уста» — в мир фантазий и грез, где исполняются мечты. Луиза, решив развеяться и заодно излечить свое разбитое сердце, принимает приглашение мальчиков. Они еще не знают самого главного…

Страна: Мексика
Студия: Anhelo Producciones, Besame Mucho Pictures, Producciones Anhelo
Продолжительность: 01:45:52.608
Перевод: Авторский (одноголосый закадровый) Ю. Сербин
Профессиональный (двухголосый закадровый) R5


Кодек: h.264
Качество: BDRip 720p
Видео: 1280x688 (1.85:1), 23.976 fps, AVC, ~4294 Kbps, 0.203 bits/pixel
Звук:
Русский, 48.0 KHz, AC3, 2 ch, 128 Kbps Ю. Сербин
Русский, 48.0 KHz, AC3, 6 ch, 384 Kbps R5
Испанский, 48.0 KHz, AC3, 6 ch, 640 Kbps
Субтитры:
Английские, PGS
Русские,SRT(UTF-8) R5

Общее
Уникальный идентификатор : 241556705990804851225933174341573850152 (0xB5BA211C0075911180D1B980D7C8B428)
Полное имя : G:FILMSI_tvoju_mamu_tozhe.2001.BDRip720p.US_transfer.mkv
Формат : Matroska
Версия формата : Version 4 / Version 2
Размер файла : 4,04 Гбайт
Продолжительность : 1 ч. 45 м.
Общий поток : 5461 Кбит/сек
Дата кодирования : UTC 2015-01-11 18:46:50
Программа кодирования : mkvmerge v7.4.0 ('Circles') 64bit built on Dec 12 2014 12:19:56
Библиотека кодирования : libebml v1.3.0 + libmatroska v1.4.1
DURATION : 01:40:08.662000000
NUMBER_OF_FRAMES : 1029
NUMBER_OF_BYTES : 68287
_STATISTICS_WRITING_APP : mkvmerge v7.4.0 ('Circles') 64bit built on Dec 12 2014 12:19:56
_STATISTICS_WRITING_DATE_UTC : 2015-01-11 18:46:50
_STATISTICS_TAGS : BPS DURATION NUMBER_OF_FRAMES NUMBER_OF_BYTES

Видео
Идентификатор : 1
Формат : AVC
Формат/Информация : Advanced Video Codec
Профиль формата : High@L4.1
Параметр CABAC формата : Да
Параметр ReFrames формата : 9 кадров
Идентификатор кодека : V_MPEG4/ISO/AVC
Продолжительность : 1 ч. 45 м.
Битрейт : 4294 Кбит/сек
Ширина : 1280 пикселей
Высота : 688 пикселей
Соотношение сторон : 1,85:1
Режим частоты кадров : Постоянный
Частота кадров : 23,976 кадра/сек
Цветовое пространство : YUV
Субдискретизация насыщенности : 4:2:0
Битовая глубина : 8 бит
Тип развёртки : Прогрессивная
Бит/(Пиксели*Кадры) : 0.203
Размер потока : 3,11 Гбайт (77%)
Библиотека кодирования : x264 core 142 r2431 ac76440
Настройки программы : cabac=1 / ref=9 / deblock=1:-3:-3 / analyse=0x3:0x133 / me=umh / subme=10 / psy=1 / psy_rd=1.10:0.10 / mixed_ref=1 / me_range=32 / chroma_me=1 / trellis=2 / 8x8dct=1 / cqm=0 / deadzone=21,11 / fast_pskip=0 / chroma_qp_offset=-3 / threads=8 / lookahead_threads=2 / sliced_threads=0 / nr=0 / decimate=0 / interlaced=0 / bluray_compat=0 / constrained_intra=0 / bframes=14 / b_pyramid=2 / b_adapt=2 / b_bias=0 / direct=3 / weightb=1 / open_gop=0 / weightp=2 / keyint=240 / keyint_min=23 / scenecut=60 / intra_refresh=0 / rc_lookahead=60 / rc=2pass / mbtree=0 / bitrate=4294 / ratetol=1.0 / qcomp=0.60 / qpmin=0 / qpmax=69 / qpstep=4 / cplxblur=20.0 / qblur=0.5 / vbv_maxrate=50000 / vbv_bufsize=62500 / nal_hrd=none / filler=0 / ip_ratio=1.40 / pb_ratio=1.30 / aq=1:1.00
Default : Нет
Forced : Нет
Основные цвета : BT.709
Характеристики трансфера : BT.709
Коэффициенты матрицы : BT.709
colour_range : Limited
DURATION : 01:45:52.555000000
NUMBER_OF_FRAMES : 152309
NUMBER_OF_BYTES : 3409134073
_STATISTICS_WRITING_APP : mkvmerge v7.4.0 ('Circles') 64bit built on Dec 12 2014 12:19:56
_STATISTICS_WRITING_DATE_UTC : 2015-01-11 18:46:50
_STATISTICS_TAGS : BPS DURATION NUMBER_OF_FRAMES NUMBER_OF_BYTES

Аудио #1
Идентификатор : 2
Формат : AC-3
Формат/Информация : Audio Coding 3
Расширение режима : CM (complete main)
Параметр Endianness формата : Big
Идентификатор кодека : A_AC3
Продолжительность : 1 ч. 45 м.
Вид битрейта : Постоянный
Битрейт : 128 Кбит/сек
Каналы : 2 канала
Расположение каналов : Front: L R
Частота : 48,0 КГц
Битовая глубина : 16 бит
Метод сжатия : С потерями
Размер потока : 96,9 Мбайт (2%)
Заголовок : Serbin
Язык : Russian
Default : Да
Forced : Нет

Аудио #2
Идентификатор : 3
Формат : AC-3
Формат/Информация : Audio Coding 3
Расширение режима : CM (complete main)
Параметр Endianness формата : Big
Идентификатор кодека : A_AC3
Продолжительность : 1 ч. 45 м.
Вид битрейта : Постоянный
Битрейт : 384 Кбит/сек
Каналы : 6 каналов
Расположение каналов : Front: L C R, Side: L R, LFE
Частота : 48,0 КГц
Битовая глубина : 16 бит
Метод сжатия : С потерями
Размер потока : 291 Мбайт (7%)
Заголовок : R5
Язык : Russian
Default : Нет
Forced : Нет

Аудио #3
Идентификатор : 4
Формат : AC-3
Формат/Информация : Audio Coding 3
Расширение режима : CM (complete main)
Параметр Endianness формата : Big
Идентификатор кодека : A_AC3
Продолжительность : 1 ч. 45 м.
Вид битрейта : Постоянный
Битрейт : 640 Кбит/сек
Каналы : 6 каналов
Расположение каналов : Front: L C R, Side: L R, LFE
Частота : 48,0 КГц
Битовая глубина : 16 бит
Метод сжатия : С потерями
Размер потока : 485 Мбайт (12%)
Язык : Spanish
Default : Нет
Forced : Нет

Текст #1
Идентификатор : 5
Формат : PGS
Режим смешивания : zlib
Идентификатор кодека : S_HDMV/PGS
Идентификатор кодека/Информация : The same subtitle format used on BDs/HD-DVDs
Язык : English
Default : Нет
Forced : Нет

Текст #2
Идентификатор : 6
Формат : UTF-8
Идентификатор кодека : S_TEXT/UTF8
Идентификатор кодека/Информация : UTF-8 Plain Text
Язык : Russian
Default : Нет
Forced : Нет

Меню
00:00:00.000 : en:00:00:00.000
00:05:46.888 : en:00:05:46.888
00:07:58.186 : en:00:07:58.186
00:12:44.347 : en:00:12:44.347
00:20:24.890 : en:00:20:24.890
00:23:58.228 : en:00:23:58.228
00:30:25.824 : en:00:30:25.824
00:35:08.982 : en:00:35:08.982
00:39:29.784 : en:00:39:29.784
00:45:32.563 : en:00:45:32.563
00:49:32.678 : en:00:49:32.678
00:59:02.789 : en:00:59:02.789
01:03:04.114 : en:01:03:04.114
01:07:28.002 : en:01:07:28.002
01:11:41.839 : en:01:11:41.839
01:14:29.590 : en:01:14:29.590
01:17:19.051 : en:01:17:19.051
01:22:45.836 : en:01:22:45.836
01:34:16.526 : en:01:34:16.526
01:37:03.693 : en:01:37:03.693


И


Релиз от: Temperest
загрузка...
Правила, инструкции, FAQ!!!
Торрент  Добавлен [31 янв 2015, 00:07] Скачать торрент
Скачать торрент
[ Размер 10.76 КБ / Просмотров 6 ]

Статус
Проверен 
 
Размер  4.04 ГБ
Приватный: Нет (DHT включён)
.torrent скачан  266
Как залить торрент? | Как скачать Torrent? | Как смотреть и слушать онлайн?  


     Отправить личное сообщение
   
Страница 1 из 1
Показать сообщения за:  Поле сортировки  
Начать новую тему Ответить на тему

   Похожие торренты   Автор   Ответы   Просмотры   Последнее сообщение 
В этой теме нет новых непрочитанных сообщений. Скачать торрент Проверен И твою маму тоже / Y tu mama tambien (2001) BDRip

в форуме Комедии, Размер: 2.19 ГБ, Здоровье: 100%

Гость

0
43|20

61
71

31 янв 2015, 00:03

Гость Перейти к последнему сообщению

В этой теме нет новых непрочитанных сообщений. Скачать торрент Проверен Нечто / The Thing (2011) BDRip 720p | US Transfer

в форуме 720p | 1080p, Размер: 4.37 ГБ, Здоровье: 100%

Anonymous

0
40|2

31
229

07 ноя 2014, 20:32

Anonymous Перейти к последнему сообщению

В этой теме нет новых непрочитанных сообщений. Скачать торрент Проверен Харакири / Ichimei (2011) BDRip 720p | GER Transfer | Р

в форуме 720p | 1080p, Размер: 7.56 ГБ, Здоровье: 100%

Гость

0
69|55

133
58

28 ноя 2015, 21:51

Гость Перейти к последнему сообщению

В этой теме нет новых непрочитанных сообщений. Скачать торрент Проверен Свяжи меня / Átame! (1989) BDRip 720p | U.S. transfer | P, P2

в форуме 720p | 1080p, Размер: 9.5 ГБ, Здоровье: ???%

Гость

0
0|16

44
0

06 янв 2015, 16:38

Гость Перейти к последнему сообщению

В этой теме нет новых непрочитанных сообщений. Скачать торрент Проверен Хоть раз в жизни / Begin again (2013) BDRip 720p | GER Transfer | Лицензия

в форуме 720p | 1080p, Размер: 3.16 ГБ, Здоровье: 100%

Anonymous

0
358|48

48
449

02 янв 2015, 15:51

Anonymous Перейти к последнему сообщению



Сейчас этот форум просматривают: нет зарегистрированных пользователей и гости: 3


Вы не можете начинать темы
Вы не можете отвечать на сообщения
Вы не можете редактировать свои сообщения
Вы не можете удалять свои сообщения
Вы не можете добавлять вложения

Перейти:  

!ВНИМАНИЕ!
 Ресурс не предоставляет электронные версии произведений, а занимается лишь коллекционированием и каталогизацией ссылок, присылаемых и публикуемых на форуме нашими читателями. Если вы являетесь правообладателем какого-либо представленного материала и не желаете чтобы ссылка на него находилась в нашем каталоге, свяжитесь с нами и мы незамедлительно удалим её. Файлы для обмена на трекере предоставлены пользователями сайта, и администрация не несёт ответственности за их содержание. Просьба не заливать файлы, защищенные авторскими правами, а также файлы нелегального содержания!