На всех торрентах на трекере установлена скидка на скачивание в размере 100 процентов(а).
 Возможность скачивания торрента НЕ зависит от ограничений при низком ратио, низком аплоаде, требуемом ратио или требуемом аплоаде.


Начать новую тему Ответить на тему
Статистика раздачи
Размер: 7.76 ГБ | Добавлен: 30 янв 2015, 00:18 | Скачали: 494
Сидеров: 98  [0 байт/сек]    Личеров: 24  [0 байт/сек]
Пред. тема | След. тема 

Автор
Сообщение

СообщениеДобавлено: 30 янв 2015, 00:18 

Русское название: Мажестик
Оригинальное название: The Majestic
Год выпуска: 2001
Жанр: драма
Выпущено: США, Австралия
Режиссер: Фрэнк Дарабонт
В ролях: Джим Керри , Лори Холден , Мартин Ландау , Хэл Холбрук , Джеффри ДеМанн , Боб Бэлабан , Брент Бриско , Рон Рифкин , Джерри Блэк , Дэвид Огден Стайерз , Джеймс Уитмор , Сьюзэн Уиллис
Перевод: Дублированный

Сюжет фильма:
История о человеке, ищущем самого себя. Питер, голливудский сценарист, случайно попадает в маленький городок Лоусон в Калифорнии: после автомобильной аварии он полностью теряет память.
Его принимают за пропавшего без вести героя Второй мировой. Питер, который сам поверил в это, берется за восстановление заброшенного городского кинотеатра. Невеста героя, которая ждала его несколько лет, также не замечает, что рядом с ней - двойник. Прекрасная жизнь основана на прекрасном обмане. Но правда, рано или поздно, откроется...



PG - Рекомендуется присутствие родителей.
Этот рейтинг получают фильмы, которые требуют внимания со стороны родителей. Возможно некоторые сцены из картины родители посчитают неприемлемыми для просмотра своими детьми. Но в фильме точно отсутствуют сексуальные эпизоды и сцены с использованием наркотиков.

Качество: BDRip 720p
Формат: AVC (библиотека кодирования x.264)
Контейнер (Расширение): MKV
Видео: 1280x720 (16:9), 5990 Кбит/сек, 23,976 кадр/сек, 0,271 Бит/[Пиксели*Кадры]
Аудио №1: русский / AC3 / 5.1 / 48 kHz / 640 kbps / |Дублированный|
Аудио №2: английский / AC3 / 5.1 / 48 kHz / 640 kbps /
Субтитры: русские (Russian), английские (English SDH)
Навигация по главам(Чаптеры): есть
Продолжительность: 02:32:45
Автор рипа:
Format : Matroska
Format version : Version 2
File size : 7.76 GiB
Duration : 2h 32mn
Overall bit rate : 7 271 Kbps
Movie name : Mazhestik.(2001).BDRip.720p.[denis100]
Encoded date : UTC 2015-01-29 08:58:51
Writing application : mkvmerge v5.8.0 ('No Sleep / Pillow') built on Sep 2 2012 15:37:04
Writing library : libebml v1.2.3 + libmatroska v1.3.0

Video
ID : 1
Format : AVC
Format/Info : Advanced Video Codec
Format profile : High@L4.1
Format settings, CABAC : Yes
Format settings, ReFrames : 4 frames
Codec ID : V_MPEG4/ISO/AVC
Duration : 2h 32mn
Bit rate : 5 990 Kbps
Width : 1 280 pixels
Height : 720 pixels
Display aspect ratio : 16:9
Frame rate : 23.976 fps
Color space : YUV
Chroma subsampling : 4:2:0
Bit depth : 8 bits
Scan type : Progressive
Bits/(Pixel*Frame) : 0.271
Stream size : 6.24 GiB (80%)
Title : Mazhestik.(2001).BDRip.720p.[denis100]
Writing library : x264 core 144 r2525 40bb568
Encoding settings : cabac=1 / ref=4 / deblock=1:-3:-3 / analyse=0x3:0x133 / me=umh / subme=11 / psy=1 / psy_rd=1.00:0.10 / mixed_ref=1 / me_range=48 / chroma_me=1 / trellis=2 / 8x8dct=1 / cqm=0 / deadzone=21,11 / fast_pskip=0 / chroma_qp_offset=-3 / threads=6 / lookahead_threads=1 / sliced_threads=0 / nr=0 / decimate=1 / interlaced=0 / bluray_compat=0 / constrained_intra=0 / bframes=10 / b_pyramid=2 / b_adapt=2 / b_bias=0 / direct=3 / weightb=1 / open_gop=0 / weightp=2 / keyint=240 / keyint_min=23 / scenecut=40 / intra_refresh=0 / rc=2pass / mbtree=0 / bitrate=5990 / ratetol=1.0 / qcomp=0.60 / qpmin=0 / qpmax=69 / qpstep=4 / cplxblur=20.0 / qblur=0.5 / ip_ratio=1.40 / pb_ratio=1.30 / aq=1:0.90
Language : English
Default : Yes
Forced : No

Audio #1
ID : 2
Format : AC-3
Format/Info : Audio Coding 3
Mode extension : CM (complete main)
Codec ID : A_AC3
Duration : 2h 32mn
Bit rate mode : Constant
Bit rate : 640 Kbps
Channel(s) : 6 channels
Channel positions : Front: L C R, Side: L R, LFE
Sampling rate : 48.0 KHz
Bit depth : 16 bits
Compression mode : Lossy
Stream size : 699 MiB (9%)
Title : Дублированный
Language : Russian
Default : Yes
Forced : No

Audio #2
ID : 3
Format : AC-3
Format/Info : Audio Coding 3
Mode extension : CM (complete main)
Codec ID : A_AC3
Duration : 2h 32mn
Bit rate mode : Constant
Bit rate : 640 Kbps
Channel(s) : 6 channels
Channel positions : Front: L C R, Side: L R, LFE
Sampling rate : 48.0 KHz
Bit depth : 16 bits
Compression mode : Lossy
Stream size : 699 MiB (9%)
Title : English
Language : English
Default : No
Forced : No

Text #1
ID : 4
Format : UTF-8
Codec ID : S_TEXT/UTF8
Codec ID/Info : UTF-8 Plain Text
Title : Russian
Language : Russian
Default : No
Forced : No

Text #2
ID : 5
Format : UTF-8
Codec ID : S_TEXT/UTF8
Codec ID/Info : UTF-8 Plain Text
Title : English SDH
Language : English
Default : No
Forced : No

Menu
00:00:00.000 : en:00:00:00.000
00:05:06.348 : en:00:05:06.348
00:07:40.543 : en:00:07:40.543
00:10:38.555 : en:00:10:38.555
00:13:35.606 : en:00:13:35.606
00:18:13.092 : en:00:18:13.092
00:24:09.657 : en:00:24:09.657
00:28:19.948 : en:00:28:19.948
00:34:08.338 : en:00:34:08.338
00:38:00.320 : en:00:38:00.320
00:41:30.446 : en:00:41:30.446
00:46:29.245 : en:00:46:29.245
00:49:46.692 : en:00:49:46.692
00:54:24.428 : en:00:54:24.428
00:59:01.538 : en:00:59:01.538
01:03:57.917 : en:01:03:57.917
01:07:29.629 : en:01:07:29.629
01:12:11.118 : en:01:12:11.118
01:15:30.526 : en:01:15:30.526
01:18:08.100 : en:01:18:08.100
01:24:06.959 : en:01:24:06.959
01:26:23.762 : en:01:26:23.762
01:30:17.537 : en:01:30:17.537
01:32:52.859 : en:01:32:52.859
01:36:12.183 : en:01:36:12.183
01:42:54.126 : en:01:42:54.126
01:46:50.654 : en:01:46:50.654
01:50:11.647 : en:01:50:11.647
01:53:07.531 : en:01:53:07.531
01:55:54.197 : en:01:55:54.197
01:59:42.092 : en:01:59:42.092
02:03:13.761 : en:02:03:13.761
02:07:04.992 : en:02:07:04.992
02:17:10.889 : en:02:17:10.889
02:20:20.162 : en:02:20:20.162
02:21:56.925 : en:02:21:56.925
02:27:34.262 : en:02:27:34.262
загрузка...
Правила, инструкции, FAQ!!!
Торрент  Добавлен [30 янв 2015, 00:18] Скачать торрент
Скачать торрент
[ Размер 39.36 КБ / Просмотров 6 ]

Статус
Проверен 
 
Размер  7.76 ГБ
Приватный: Нет (DHT включён)
.torrent скачан  494
Как залить торрент? | Как скачать Torrent? | Как смотреть и слушать онлайн?  


     Отправить личное сообщение
   
Страница 1 из 1
Показать сообщения за:  Поле сортировки  
Начать новую тему Ответить на тему

   Похожие торренты   Автор   Ответы   Просмотры   Последнее сообщение 
В этой теме нет новых непрочитанных сообщений. Скачать торрент Проверен Мажестик / The Majestic (2001) BDRip | D

в форуме Драмы, Мелодрамы, Размер: 1.46 ГБ, Здоровье: 100%

Гость

0
23|21

35
33

30 янв 2015, 00:15

Гость Перейти к последнему сообщению

В этой теме нет новых непрочитанных сообщений. Скачать торрент Проверен Сердцеедки / Heartbreakers (2001) BDRip 720p | D, P, A

в форуме 720p | 1080p, Размер: 5.95 ГБ, Здоровье: 86%

Гость

0
19|22

28
14

27 ноя 2015, 20:13

Гость Перейти к последнему сообщению

В этой теме нет новых непрочитанных сообщений. Скачать торрент Проверен Рок-звезда / Rock Star (2001) BDRip 720p

в форуме 720p | 1080p, Размер: 2.35 ГБ, Здоровье: 100%

Anonymous

0
16|1

42
108

21 окт 2014, 18:55

Anonymous Перейти к последнему сообщению

В этой теме нет новых непрочитанных сообщений. Скачать торрент Проверен Пришелец / Impostor (2001) BDRip 720p | Theatrical Cut | D, P2, A

в форуме 720p | 1080p, Размер: 4.38 ГБ, Здоровье: 100%

Гость

0
107|84

36
125

21 фев 2015, 19:17

Гость Перейти к последнему сообщению

В этой теме нет новых непрочитанных сообщений. Скачать торрент Проверен Ничья земля / No Man's Land (2001) BDRip 720p

в форуме 720p | 1080p, Размер: 3.87 ГБ, Здоровье: 100%

Anonymous

0
85|65

128
50

05 янв 2015, 20:36

Anonymous Перейти к последнему сообщению



Сейчас этот форум просматривают: нет зарегистрированных пользователей и гости: 1


Вы не можете начинать темы
Вы не можете отвечать на сообщения
Вы не можете редактировать свои сообщения
Вы не можете удалять свои сообщения
Вы не можете добавлять вложения

Перейти:  

!ВНИМАНИЕ!
 Ресурс не предоставляет электронные версии произведений, а занимается лишь коллекционированием и каталогизацией ссылок, присылаемых и публикуемых на форуме нашими читателями. Если вы являетесь правообладателем какого-либо представленного материала и не желаете чтобы ссылка на него находилась в нашем каталоге, свяжитесь с нами и мы незамедлительно удалим её. Файлы для обмена на трекере предоставлены пользователями сайта, и администрация не несёт ответственности за их содержание. Просьба не заливать файлы, защищенные авторскими правами, а также файлы нелегального содержания!