На всех торрентах на трекере установлена скидка на скачивание в размере 100 процентов(а).
 Возможность скачивания торрента НЕ зависит от ограничений при низком ратио, низком аплоаде, требуемом ратио или требуемом аплоаде.


Начать новую тему Ответить на тему
Статистика раздачи
Размер: 7.89 ГБ | Добавлен: 27 янв 2015, 17:25 | Скачали: 48
Сидеров: 27  [0 байт/сек]    Личеров: 28  [0 байт/сек]
Пред. тема | След. тема 

Автор
Сообщение

СообщениеДобавлено: 27 янв 2015, 17:25 

Название: Последнее соблазнение
Оригинальное название: The Last Seduction
Год выхода: 1994
Жанр: Триллер, драма, криминал
Режиссер: Джон Дал
В ролях: Линда Фиорентино, Билл Пуллман, Зак Файфер, Питер Берг, Брайан Варади, Дин Норрис, Донна Уилсон, Мик Скриба, Дж.Т. Уолш, Патриция Р. Каприо, Херб Митчел, Билл Нанн, Рени Роджерс, Билл Стивенсон, Уолтер Эддисон, Энн Флэнеган, Мишель Дэвисон, Джек Ширер
О фильме:
Бриджет хочет иметь все. И сейчас. Цена значения не имеет. Она сбегает с миллионом долларов, принадлежащих кредиторам ее мужа, и прячется в маленьком городке под Нью-Йорком. Встретив там Майка, она склоняет его к страстному роману. Майк еще никогда не встречал женщину, подобную Бриджет. Она умна, шикарна и обворожительна.
Она не рассказывает о прошлом и не дает никаких обещаний на будущее. Бриджет посвящает Майка в план, как можно быстро заработать. А тем временем разгневанный муж хочет любой ценой вернуть деньги. Но Бриджет не намерена сдаваться без боя. И, в конце концов, кто-то попадет на кладбище, кто-то - в тюрьму… а кто-то станет очень-очень богатым.


Страна: США, Великобритания, Incorporated Television Company (ITC)
Продолжительность: 01:49:54
Перевод: Профессиональный многоголосый / Профессиональный двухголосый

Кодек: H.264
Качество: BDRip 1080p
Видео: MPEG-4 AVC, 9000 Кбит/с, 1920x1080, 24.000 кадр/с
Звук: Русский (AC3, 6 ch, 448 Кбит/с), (AC3, 2 ch, 192 Кбит/с), английский (AC3, 6 ch, 640 Кбит/с)
Субтитры: Английские

Полное имя : D:Раздачи_DThe.Last.Seduction.1994.x264.BDRip.1080p.NovaLan.mkv
Формат : Matroska
Версия формата : Version 4 / Version 2
Размер файла : 7,89 Гбайт
Продолжительность : 1 ч. 50 м.
Общий поток : 10,2 Мбит/сек
Название фильма : The Last Seduction 1994 - NovaLan
Дата кодирования : UTC 2015-01-26 22:54:43
Программа кодирования : mkvmerge v7.5.0 ('Glass Culture') 64bit built on Jan 4 2015 16:48:44
Библиотека кодирования : libebml v1.3.1 + libmatroska v1.4.2
DURATION : 01:43:24.959000000
NUMBER_OF_FRAMES : 1130
NUMBER_OF_BYTES : 42873
_STATISTICS_WRITING_APP : mkvmerge v7.5.0 ('Glass Culture') 64bit built on Jan 4 2015 16:48:44
_STATISTICS_WRITING_DATE_UTC : 2015-01-26 22:54:43
_STATISTICS_TAGS : BPS DURATION NUMBER_OF_FRAMES NUMBER_OF_BYTES

Видео
Идентификатор : 1
Формат : AVC
Формат/Информация : Advanced Video Codec
Профиль формата : High@L4.1
Параметр CABAC формата : Да
Параметр ReFrames формата : 4 кадра
Идентификатор кодека : V_MPEG4/ISO/AVC
Продолжительность : 1 ч. 50 м.
Битрейт : 9000 Кбит/сек
Ширина : 1920 пикселей
Высота : 1080 пикселей
Соотношение сторон : 16:9
Частота кадров : 24,000 кадра/сек
Цветовое пространство : YUV
Субдискретизация насыщенности : 4:2:0
Битовая глубина : 8 бит
Тип развёртки : Прогрессивная
Бит/(Пиксели*Кадры) : 0.181
Размер потока : 6,75 Гбайт (86%)
Заголовок : Sergei7721
Библиотека кодирования : x264 core 133 r2334 a3ac64b
Настройки программы : cabac=1 / ref=4 / deblock=1:-1:-1 / analyse=0x3:0x113 / me=umh / subme=11 / psy=1 / psy_rd=1.00:0.20 / mixed_ref=1 / me_range=24 / chroma_me=1 / trellis=2 / 8x8dct=1 / cqm=0 / deadzone=21,11 / fast_pskip=0 / chroma_qp_offset=-3 / threads=12 / lookahead_threads=1 / sliced_threads=0 / nr=0 / decimate=0 / interlaced=0 / bluray_compat=0 / constrained_intra=0 / bframes=6 / b_pyramid=2 / b_adapt=2 / b_bias=0 / direct=3 / weightb=1 / open_gop=0 / weightp=2 / keyint=240 / keyint_min=24 / scenecut=40 / intra_refresh=0 / rc_lookahead=40 / rc=2pass / mbtree=0 / bitrate=9000 / ratetol=1.0 / qcomp=0.60 / qpmin=0 / qpmax=69 / qpstep=4 / cplxblur=20.0 / qblur=0.5 / vbv_maxrate=50000 / vbv_bufsize=62500 / nal_hrd=none / ip_ratio=1.40 / pb_ratio=1.30 / aq=1:1.00
Default : Да
Forced : Нет
DURATION : 01:49:54.917000000
NUMBER_OF_FRAMES : 158278
NUMBER_OF_BYTES : 7416265336
_STATISTICS_WRITING_APP : mkvmerge v7.5.0 ('Glass Culture') 64bit built on Jan 4 2015 16:48:44
_STATISTICS_WRITING_DATE_UTC : 2015-01-26 22:54:43
_STATISTICS_TAGS : BPS DURATION NUMBER_OF_FRAMES NUMBER_OF_BYTES

Аудио #1
Идентификатор : 2
Формат : AC-3
Формат/Информация : Audio Coding 3
Расширение режима : CM (complete main)
Параметр Endianness формата : Big
Идентификатор кодека : A_AC3
Продолжительность : 1 ч. 50 м.
Вид битрейта : Постоянный
Битрейт : 448 Кбит/сек
Каналы : 6 каналов
Расположение каналов : Front: L C R, Side: L R, LFE
Частота : 48,0 КГц
Битовая глубина : 16 бит
Метод сжатия : С потерями
Размер потока : 354 Мбайт (4%)
Язык : Russian
Default : Да
Forced : Нет

Аудио #2
Идентификатор : 3
Формат : AC-3
Формат/Информация : Audio Coding 3
Расширение режима : CM (complete main)
Параметр Endianness формата : Big
Идентификатор кодека : A_AC3
Продолжительность : 1 ч. 50 м.
Вид битрейта : Постоянный
Битрейт : 192 Кбит/сек
Каналы : 2 канала
Расположение каналов : Front: L R
Частота : 48,0 КГц
Битовая глубина : 16 бит
Метод сжатия : С потерями
Размер потока : 152 Мбайт (2%)
Язык : Russian
Default : Нет
Forced : Нет

Аудио #3
Идентификатор : 4
Формат : AC-3
Формат/Информация : Audio Coding 3
Расширение режима : CM (complete main)
Параметр Endianness формата : Big
Идентификатор кодека : A_AC3
Продолжительность : 1 ч. 50 м.
Вид битрейта : Постоянный
Битрейт : 640 Кбит/сек
Каналы : 6 каналов
Расположение каналов : Front: L C R, Side: L R, LFE
Частота : 48,0 КГц
Битовая глубина : 16 бит
Метод сжатия : С потерями
Размер потока : 505 Мбайт (6%)
Язык : English
Default : Нет
Forced : Нет

Текст
Идентификатор : 5
Формат : UTF-8
Идентификатор кодека : S_TEXT/UTF8
Идентификатор кодека/Информация : UTF-8 Plain Text
Язык : English
Default : Нет
Forced : Нет

Меню
00:00:00.000 : en:00:00:00.000
00:10:33.000 : en:00:10:33.000
00:19:06.000 : en:00:19:06.000
00:27:56.000 : en:00:27:56.000
00:39:49.000 : en:00:39:49.000
00:45:55.000 : en:00:45:55.000
00:58:42.375 : en:00:58:42.375
01:09:12.833 : en:01:09:12.833
01:16:45.000 : en:01:16:45.000
01:24:10.000 : en:01:24:10.000
01:30:13.000 : en:01:30:13.000
01:43:06.000 : en:01:43:06.000


Релиз группа NovaLan
Автор релиза Sergei7721






Релиз от:
загрузка...
Правила, инструкции, FAQ!!!
Торрент  Добавлен [27 янв 2015, 17:25] Скачать торрент
Скачать торрент
[ Размер 40.08 КБ / Просмотров 2 ]

Статус
Проверен 
 
Размер  7.89 ГБ
Приватный: Нет (DHT включён)
.torrent скачан  48
Как залить торрент? | Как скачать Torrent? | Как смотреть и слушать онлайн?  


     Отправить личное сообщение
   
Страница 1 из 1
Показать сообщения за:  Поле сортировки  
Начать новую тему Ответить на тему

   Похожие торренты   Автор   Ответы   Просмотры   Последнее сообщение 
В этой теме нет новых непрочитанных сообщений. Скачать торрент Проверен Последнее соблазнение / The Last Seduction (1994) DVDRip

в форуме Триллеры, Размер: 2.18 ГБ, Здоровье: 100%

Гость

0
32|2

74
20

27 янв 2015, 17:21

Гость Перейти к последнему сообщению

В этой теме нет новых непрочитанных сообщений. Скачать торрент Проверен Большая афера / The Grand Seduction (2013) BDRip 1080p | P | Чистый звук

в форуме 720p | 1080p, Размер: 7.12 ГБ, Здоровье: 100%

Anonymous

0
375|70

73
1457

16 сен 2014, 11:32

Anonymous Перейти к последнему сообщению

В этой теме нет новых непрочитанных сообщений. Скачать торрент Проверен Большая афера / The Grand Seduction (2013) BDRip 720p | P | лицензия

в форуме 720p | 1080p, Размер: 4.72 ГБ, Здоровье: 100%

Anonymous

0
123|31

41
334

25 сен 2014, 16:45

Anonymous Перейти к последнему сообщению

В этой теме нет новых непрочитанных сообщений. Скачать торрент Проверен Ворон / The Crow (1994) BDRip 1080p

в форуме 720p | 1080p, Размер: 4.37 ГБ, Здоровье: 100%

Гость

0
56|24

27
132

15 ноя 2016, 23:52

Гость Перейти к последнему сообщению

В этой теме нет новых непрочитанных сообщений. Скачать торрент Проверен Дерзкий / Fresh (1994) BDRip [1080p] [AVO]

в форуме 720p | 1080p, Размер: 8.9 ГБ, Здоровье: 100%

Anonymous

0
317|8

162
2

29 дек 2014, 23:02

Anonymous Перейти к последнему сообщению



Сейчас этот форум просматривают: нет зарегистрированных пользователей и гости: 1


Вы не можете начинать темы
Вы не можете отвечать на сообщения
Вы не можете редактировать свои сообщения
Вы не можете удалять свои сообщения
Вы не можете добавлять вложения

Перейти:  

!ВНИМАНИЕ!
 Ресурс не предоставляет электронные версии произведений, а занимается лишь коллекционированием и каталогизацией ссылок, присылаемых и публикуемых на форуме нашими читателями. Если вы являетесь правообладателем какого-либо представленного материала и не желаете чтобы ссылка на него находилась в нашем каталоге, свяжитесь с нами и мы незамедлительно удалим её. Файлы для обмена на трекере предоставлены пользователями сайта, и администрация не несёт ответственности за их содержание. Просьба не заливать файлы, защищенные авторскими правами, а также файлы нелегального содержания!