На всех торрентах на трекере установлена скидка на скачивание в размере 100 процентов(а).
 Возможность скачивания торрента НЕ зависит от ограничений при низком ратио, низком аплоаде, требуемом ратио или требуемом аплоаде.


Начать новую тему Ответить на тему
Статистика раздачи
Размер: 6.82 ГБ | Добавлен: 26 янв 2015, 00:42 | Скачали: 0
Сидеров: 192  [0 байт/сек]    Личеров: 9  [0 байт/сек]
Пред. тема | След. тема 

Автор
Сообщение

СообщениеДобавлено: 26 янв 2015, 00:42 

Производство: США, Demarest Films, Flynn Picture Company
Жанр: Комедия, Мелодрама

Режиссер: Макс Николс
Продюсер: Сэм Энглебардт
Актеры: Аналей Типтон, Майлз Теллер, Джессика Зор, Скотт Мескади, Берто Колон, Джош Салатин, Келлин Линдсэй, Майкл Шоуолтер, Ливэн Рамбин, Джои Лорен Эдамс

Описание фильма:
Девушка застряла дома у парня на целый день из-за ужасного снежного шторма. Благодаря этому несчастному случаю молодые люди получают возможность познакомиться поближе.



Дата мировой премьеры: 25 сентября 2014
Дата выхода DVD/Blu-ray релиза: 20 ноября 2014

Продолжительность: 01:26:13
Качество видео: BDRip
Перевод: Многоголосый закадровый, профессиональный
Субтитры: Вшитые (отключаемые)
Язык субтитров: Английские

Видеокодек: MPEG-4 AVC/H.264
Битрейт видео: ~9 147 Кбит/с
Размер кадра: 1920x808

Аудио1: Русский AC3, 6 ch, 448 Кбит/с
Аудио3: Английский DTS, 6 ch, 1509 Кбит/с

Сэмпл: Скачать
General
Complete name : O:\NNM CLUB 2015\Two.Night.Stand.2014.BDRip.1080p.mkv
Format : Matroska
File size : 6.82 GiB
Duration : 1h 26mn
Overall bit rate : 11.3 Mbps
Encoded date : UTC 2015-01-14 13:44:53
Writing application : mkvmerge v6.9.1 ('Blue Panther') 64bit built on Apr 18 2014 18:23:38
Writing library : libebml v1.3.0 + libmatroska v1.4.1

Video
ID : 1
Format : AVC
Format/Info : Advanced Video Codec
Format profile :
Format settings, CABAC : Yes
Format settings, ReFrames : 5 frames
Muxing mode : Container profile=Unknown@4.1
Codec ID : V_MPEG4/ISO/AVC
Duration : 1h 26mn
Bit rate : 9 147 Kbps
Nominal bit rate : 9 415 Kbps
Width : 1 920 pixels
Height : 808 pixels
Display aspect ratio : 2.35:1
Frame rate : 23.976 fps
Resolution : 8 bits
Colorimetry : 4:2:0
Scan type : Progressive
Bits/(Pixel*Frame) : 0.246
Stream size : 5.50 GiB (81%)
Writing library : x264 core 144 r2525 40bb568
Encoding settings : cabac=1 / ref=5 / deblock=1:-3:-3 / analyse=0x3:0x113 / me=umh / subme=8 / psy=1 / psy_rd=1.00:0.00 / mixed_ref=1 / me_range=16 / chroma_me=1 / trellis=1 / 8x8dct=1 / cqm=0 / deadzone=21,11 / fast_pskip=1 / chroma_qp_offset=-2 / threads=12 / lookahead_threads=2 / sliced_threads=0 / nr=0 / decimate=1 / interlaced=0 / bluray_compat=0 / constrained_intra=0 / bframes=3 / b_pyramid=2 / b_adapt=2 / b_bias=0 / direct=3 / weightb=1 / open_gop=0 / weightp=2 / keyint=240 / keyint_min=24 / scenecut=40 / intra_refresh=0 / rc_lookahead=50 / rc=2pass / mbtree=1 / bitrate=9415 / ratetol=1.0 / qcomp=0.60 / qpmin=0 / qpmax=69 / qpstep=4 / cplxblur=20.0 / qblur=0.5 / ip_ratio=1.40 / aq=1:1.00

Audio #1
ID : 2
Format : AC-3
Format/Info : Audio Coding 3
Codec ID : A_AC3
Duration : 1h 26mn
Bit rate mode : Constant
Bit rate : 448 Kbps
Channel(s) : 6 channels
Channel positions : Front: L C R, Surround: L R, LFE
Sampling rate : 48.0 KHz
Stream size : 276 MiB (4%)
Language : Russian

Audio #2
ID : 3
Format : DTS
Format/Info : Digital Theater Systems
Codec ID : A_DTS
Duration : 1h 26mn
Bit rate mode : Constant
Bit rate : 1 510 Kbps
Channel(s) : 6 channels
Channel positions : Front: L C R, Surround: L R, LFE
Sampling rate : 48.0 KHz
Resolution : 24 bits
Stream size : 931 MiB (13%)

Text #1
ID : 4
Format : UTF-8
Codec ID : S_TEXT/UTF8
Codec ID/Info : UTF-8 Plain Text
Title : SDH

Text #2
ID : 5
Format : UTF-8
Codec ID : S_TEXT/UTF8
Codec ID/Info : UTF-8 Plain Text

Menu
00:00:00.000 : en:00:00:00.000
00:06:14.916 : en:00:06:14.916
00:12:50.853 : en:00:12:50.853
00:17:19.163 : en:00:17:19.163
00:19:59.532 : en:00:19:59.532
00:22:58.460 : en:00:22:58.460
00:26:52.027 : en:00:26:52.027
00:32:10.512 : en:00:32:10.512
00:37:00.468 : en:00:37:00.468
00:47:30.389 : en:00:47:30.389
00:53:22.074 : en:00:53:22.074
01:02:39.965 : en:01:02:39.965
01:05:50.780 : en:01:05:50.780
01:12:04.695 : en:01:12:04.695
01:16:28.834 : en:01:16:28.834
01:22:20.060 : en:01:22:20.060

Скриншоты:

загрузка...
Правила, инструкции, FAQ!!!
Торрент  Добавлен [26 янв 2015, 00:42] Скачать торрент
Скачать торрент
[ Размер 34.83 КБ / Просмотров 9 ]

Статус
Проверен 
 
Размер  6.82 ГБ
Приватный: Нет (DHT включён)
.torrent скачан  0
Как залить торрент? | Как скачать Torrent? | Как смотреть и слушать онлайн?  


     Отправить личное сообщение
   
Страница 1 из 1
Показать сообщения за:  Поле сортировки  
Начать новую тему Ответить на тему

   Похожие торренты   Автор   Ответы   Просмотры   Последнее сообщение 
В этой теме нет новых непрочитанных сообщений. Скачать торрент Проверен Секс на две ночи / Two Night Stand (2014) WEB-DL 720p | P

в форуме 720p | 1080p, Размер: 2.72 ГБ, Здоровье: 100%

Anonymous

0
119|6

42
5829

10 дек 2014, 12:43

Anonymous Перейти к последнему сообщению

В этой теме нет новых непрочитанных сообщений. Скачать торрент Проверен Секс на две ночи / Two Night Stand (2014) WEB-DLRip | P

в форуме Драмы, Мелодрамы, Размер: 1.37 ГБ, Здоровье: 0%

Гость

0
0|0

54
0

10 дек 2014, 12:41

Гость Перейти к последнему сообщению

В этой теме нет новых непрочитанных сообщений. Скачать торрент Проверен Хозяева ночи / We Own the Night (2007) BDRip 1080р | D

в форуме 720p | 1080p, Размер: 9.52 ГБ, Здоровье: 60%

Anonymous

0
14|23

37
22

31 окт 2014, 19:40

Anonymous Перейти к последнему сообщению

В этой теме нет новых непрочитанных сообщений. Скачать торрент Проверен Хозяева ночи / We Own the Night (2007) BDRip 720p

в форуме 720p | 1080p, Размер: 5.75 ГБ, Здоровье: 22%

Anonymous

0
12|54

34
14

31 окт 2014, 19:38

Anonymous Перейти к последнему сообщению

В этой теме нет новых непрочитанных сообщений. Скачать торрент Проверен Больше чем секс / No Strings Attached (2010) BDRip 1080p | D

в форуме 720p | 1080p, Размер: 11.82 ГБ, Здоровье: 100%

Гость

0
71|18

56
75

24 май 2015, 23:12

Гость Перейти к последнему сообщению



Сейчас этот форум просматривают: нет зарегистрированных пользователей и гости: 1


Вы не можете начинать темы
Вы не можете отвечать на сообщения
Вы не можете редактировать свои сообщения
Вы не можете удалять свои сообщения
Вы не можете добавлять вложения

Перейти:  

!ВНИМАНИЕ!
 Ресурс не предоставляет электронные версии произведений, а занимается лишь коллекционированием и каталогизацией ссылок, присылаемых и публикуемых на форуме нашими читателями. Если вы являетесь правообладателем какого-либо представленного материала и не желаете чтобы ссылка на него находилась в нашем каталоге, свяжитесь с нами и мы незамедлительно удалим её. Файлы для обмена на трекере предоставлены пользователями сайта, и администрация не несёт ответственности за их содержание. Просьба не заливать файлы, защищенные авторскими правами, а также файлы нелегального содержания!
cron