На всех торрентах на трекере установлена скидка на скачивание в размере 100 процентов(а).
 Возможность скачивания торрента НЕ зависит от ограничений при низком ратио, низком аплоаде, требуемом ратио или требуемом аплоаде.


Начать новую тему Ответить на тему
Статистика раздачи
Размер: 7.69 ГБ | Добавлен: 25 янв 2015, 20:22 | Скачали: 133
Сидеров: 11  [0 байт/сек]    Личеров: 7  [0 байт/сек]
Пред. тема | След. тема 

Автор
Сообщение

СообщениеДобавлено: 25 янв 2015, 20:22 

Название: Моя мачеха - инопланетянка
Оригинальное название: My Stepmother Is an Alien
Год выхода: 1988
Жанр: фантастика, комедия
Режиссер: Ричард Бенджамин
В ролях: Дэн Эйкройд, Ким Бейсингер, Джон Ловиц, Элисон Хэннигэн, Джозеф Maэp, Сет Грин, Энн Прентисс, Уэсли Манн, Тони Джей, Питер Бромилов

О фильме:
Селеста — сексуальная инопланетянка с секретным заданием — совратить ничего не подозревающего физика Стива Миллса и добраться до его исследований, в которых содержится ключ к спасению ее планеты.

Разодетая по последней моде и закусывающая на завтрак батарейками, Селеста производит неизгладимое впечатление на земных мужчин. Счастливый муж вот-вот испытает близкие контакты космически невообразимой степени!




Рейтинг PG-13 - Детям до 13 лет просмотр не желателен
Ограничение по возрасту: 12+

Страна: США
Студия: Catalina Production Group Ltd., Weintraub Entertainment Group
Продолжительность: 01:43:31
Перевод: Профессиональный (многоголосый закадровый), Авторский (одноголосый закадровый) В. Горчаков


Кодек: AVC
Качество: HDTV 1080p
Видео: 1920x1080 (16:9); 9845 Kbps; 25 fps; 0,190 bpp
Аудио №1: Russian; AC3; 192 Kbps; CBR; 2 ch
Аудио №2: Russian; AC3; 192 Kbps; CBR; 2 ch
Аудио №3: English; AC3; 192 Kbps; CBR; 2 ch
Субтитры: отсутствуют
• Первоначально Шелли Лонг брали на роль Селесты.
• 25 января 1988 года в первоначальном сценарии в качестве сценариста был отмечен Джерико, а также то, что изменения вносили Фрэнк Галати, Ричард Беннер, Сьюзэн Райс, Хершел Уайнгрод, Тимоти Харрис, Пол Рудник, Дебра Фрэнк и Карл Соттер. Было указано и то, что сценарий был переписан Джонатаном Рейнольдсом. Но в финальных титрах фильма в итоге были указаны только четверо из десяти сценаристов.
• Чтобы исполнить роль Селесты, Ким Бейсингер отказалась от возможности сыграть Сару Тобиас в фильме «Обвиняемые» (1988).
Этот фильм стал дебютом актрисы Джульетт Льюис.
• В одной сцене персонаж сумки передразнивает Карла Сагана. Саган был одним из самых выдающихся астрономов и космологов Америки. Он также написал роман «Контакт», по которому был снят одноименный фильм (1997).
• Один из трех членов совета пришельцев (тот, что слева от Тони Джея) никогда не говорит.
• Первоначальный сценарист Джерико видел эту историю как темную аллегорию на жестокое обращение с детьми. Именно так он преподнес ее студии Paramount в 1981 году. Хотя компания так и не стала снимать фильм, она все же купила права на эту историю.
• Некоторые сцены снимались в Таусанд-Оксе, Калифорния. Пляж, на который приземляется Селеста в начале фильма, тот же, что и в сериале «Беверли-Хиллз 90210» (1990-2000).
• Когда Селеста находится на вечеринке Рона после ее приземления, она делает сальто назад. В то время, когда она это делает, сначала видна сумочка на ней, но в следующем кадре та исчезает. После того как она завершает трюк, сумочка снова на ее плече.
• Когда Селеста находится на вечеринке в красном платье, ее волосы абсолютно прямые. Затем она переодевается в машине Стива и выходит из нее уже с вьющимися волосами.
• В сцене, где Селеста заводит машину, воткнув палец в замок зажигания, когда автомобиль начинает ехать, в заднем окне со стороны пассажира видно двух членов съемочной группы.
• Когда герои впервые оказываются в электрощитовой, на полу видно одного из членов съемочной группы.
• Во время сцены секса Селесты и Стива дважды видно подмышку Селесты. При этом оба раза заметна лента, прикрывающая ее грудь.
Общее
Уникальный идентификатор : 231932766605195395064400186100095753372 (0xAE7CA0436EF3ED8B953B901109219C9C)
Полное имя : C:UsersDimazDesktopMy Stepmother is an Alien.1988. HDTV 1080.mkv
Формат : Matroska
Версия формата : Version 4 / Version 2
Размер файла : 7,69 Гбайт
Продолжительность : 1 ч. 43 м.
Режим общего битрейта : Переменный
Общий поток : 10,6 Мбит/сек
Название фильма : My Stepmother Is an Alien
Дата кодирования : UTC 2013-04-29 02:11:18
Программа кодирования : mkvmerge v6.2.0 ('Promised Land') built on Apr 28 2013 12:22:01
Библиотека кодирования : libebml v1.3.0 + libmatroska v1.4.0

Видео
Идентификатор : 1
Формат : AVC
Формат/Информация : Advanced Video Codec
Профиль формата : Main@L4.0
Параметр CABAC формата : Да
Параметр ReFrames формата : 4 кадра
Идентификатор кодека : V_MPEG4/ISO/AVC
Продолжительность : 1 ч. 43 м.
Вид битрейта : Переменный
Битрейт : 9846 Кбит/сек
Максимальный битрейт : 40,0 Мбит/сек
Ширина : 1920 пикселей
Высота : 1080 пикселей
Соотношение сторон : 16:9
Режим частоты кадров : Постоянный
Частота кадров : 25,000 кадров/сек
Цветовое пространство : YUV
Субдискретизация насыщенности : 4:2:0
Битовая глубина : 8 бит
Тип развёртки : MBAFF
Бит/(Пиксели*Кадры) : 0.190
Размер потока : 7,12 Гбайт (93%)
Заголовок : My Stepmother Is an Alien
Default : Да
Forced : Нет
Основные цвета : BT.709
Характеристики трансфера : BT.709
Коэффициенты матрицы : BT.709

Аудио #1
Идентификатор : 2
Формат : AC-3
Формат/Информация : Audio Coding 3
Профиль формата : Dolby Digital
Расширение режима : CM (complete main)
Параметр Endianness формата : Big
Идентификатор кодека : A_AC3
Продолжительность : 1 ч. 43 м.
Вид битрейта : Постоянный
Битрейт : 192 Кбит/сек
Каналы : 2 канала
Расположение каналов : Front: L R
Частота : 48,0 КГц
Битовая глубина : 16 бит
Метод сжатия : С потерями
Размер потока : 142 Мбайт (2%)
Язык : Russian
Default : Да
Forced : Нет

Аудио #2
Идентификатор : 3
Формат : AC-3
Формат/Информация : Audio Coding 3
Профиль формата : Dolby Digital
Расширение режима : CM (complete main)
Параметр Endianness формата : Big
Идентификатор кодека : A_AC3
Продолжительность : 1 ч. 43 м.
Вид битрейта : Постоянный
Битрейт : 192 Кбит/сек
Каналы : 2 канала
Расположение каналов : Front: L R
Частота : 48,0 КГц
Битовая глубина : 16 бит
Метод сжатия : С потерями
Размер потока : 142 Мбайт (2%)
Язык : Russian
Default : Нет
Forced : Нет

Аудио #3
Идентификатор : 4
Формат : AC-3
Формат/Информация : Audio Coding 3
Расширение режима : CM (complete main)
Параметр Endianness формата : Big
Идентификатор кодека : A_AC3
Продолжительность : 1 ч. 43 м.
Вид битрейта : Постоянный
Битрейт : 192 Кбит/сек
Каналы : 2 канала
Расположение каналов : Front: L R
Частота : 48,0 КГц
Битовая глубина : 16 бит
Метод сжатия : С потерями
Размер потока : 142 Мбайт (2%)
Язык : English
Default : Нет
Forced : Нет


загрузка...
Правила, инструкции, FAQ!!!
Торрент  Добавлен [25 янв 2015, 20:22] Скачать торрент
Скачать торрент
[ Размер 19.84 КБ / Просмотров 11 ]

Статус
Проверен 
 
Размер  7.69 ГБ
Приватный: Нет (DHT включён)
.torrent скачан  133
Как залить торрент? | Как скачать Torrent? | Как смотреть и слушать онлайн?  


     Отправить личное сообщение
   
Страница 1 из 1
Показать сообщения за:  Поле сортировки  
Начать новую тему Ответить на тему

   Похожие торренты   Автор   Ответы   Просмотры   Последнее сообщение 
В этой теме нет новых непрочитанных сообщений. Скачать торрент Проверен Моя мачеха – инопланетянка / My Stepmother Is an Alien (1988) HDRip | Р

в форуме Фантастика, Фэнтези, Размер: 1.45 ГБ, Здоровье: 100%

Гость

0
24|1

74
14

25 янв 2015, 20:17

Гость Перейти к последнему сообщению

В этой теме нет новых непрочитанных сообщений. Скачать торрент Проверен (Melodic Rock | AOR) Alien - Дискография - 1988-2014 - (10 Релизов), MP3, 320 kbps

в форуме AOR (Melodic Hard Rock, Arena rock), Размер: 1.47 ГБ, Здоровье: 0%

Anonymous

0
0|0

6
1

08 окт 2016, 12:01

Anonymous Перейти к последнему сообщению

В этой теме нет новых непрочитанных сообщений. Скачать торрент Проверен (Pop, Electro) Alien 24 (Дима Билан) - Alien - 2014, MP3, 320 kbps

в форуме Отечественная музыка, Размер: 117.91 МБ, Здоровье: 100%

Гость

0
16|6

9
0

30 июл 2016, 15:07

Гость Перейти к последнему сообщению

В этой теме нет новых непрочитанных сообщений. Скачать торрент PBS.Чужие планеты (Alien Planets Revealed) / [EN] (2014) MPEG-4 | 1280 x 720] <HDTV>

в форуме Видео для смартфонов и КПК, Размер: 1.03 ГБ, Здоровье: 0%

Anonymous

0
0|0

40
0

21 апр 2014, 22:27

Anonymous Перейти к последнему сообщению

В этой теме нет новых непрочитанных сообщений. Скачать торрент Проверен Чужой против Хищника / AVP: Alien vs. Predator (2004) BDRip 1080p | D, Р, А | UNRATED

в форуме 720p | 1080p, Размер: 15.73 ГБ, Здоровье: 100%

Гость

0
14|6

130
2

17 окт 2015, 18:35

Гость Перейти к последнему сообщению



Сейчас этот форум просматривают: нет зарегистрированных пользователей и гости: 3


Вы не можете начинать темы
Вы не можете отвечать на сообщения
Вы не можете редактировать свои сообщения
Вы не можете удалять свои сообщения
Вы не можете добавлять вложения

Перейти:  

!ВНИМАНИЕ!
 Ресурс не предоставляет электронные версии произведений, а занимается лишь коллекционированием и каталогизацией ссылок, присылаемых и публикуемых на форуме нашими читателями. Если вы являетесь правообладателем какого-либо представленного материала и не желаете чтобы ссылка на него находилась в нашем каталоге, свяжитесь с нами и мы незамедлительно удалим её. Файлы для обмена на трекере предоставлены пользователями сайта, и администрация не несёт ответственности за их содержание. Просьба не заливать файлы, защищенные авторскими правами, а также файлы нелегального содержания!