На всех торрентах на трекере установлена скидка на скачивание в размере 100 процентов(а).
 Возможность скачивания торрента НЕ зависит от ограничений при низком ратио, низком аплоаде, требуемом ратио или требуемом аплоаде.


Начать новую тему Ответить на тему
Статистика раздачи
Размер: 4.37 ГБ | Добавлен: 25 янв 2015, 20:02 | Скачали: 77
Сидеров: 15  [0 байт/сек]    Личеров: 17  [0 байт/сек]
Пред. тема | След. тема 

Автор
Сообщение

СообщениеДобавлено: 25 янв 2015, 20:02 

Название: В поисках галактики
Оригинальное название: Galaxy Quest
Год выхода: 1999
Жанр: фантастика, комедия, приключения
Режиссер: Дин Паризо / Dean Parisot
В ролях: Тим Аллен, Сигурни Уивер, Алан Рикман, Тони Шэлуб, Сэм Рокуэлл, Энрико Колантони, Робин Сакс, Патрик Брин, Мисси Пайл, Джед Риис

О фильме:
Вся Америка усаживалась к телеэкранам, когда начинался любимый зрителями сериал «В поисках Галактики». Герои этой фантастической саги были воистину народными героями. Но прошли годы, и сериал надоел телевизионным боссам. «В поисках Галактики» закрыли, а труппу распустили на все четыре стороны.
Безработные бедолаги — актеры, исполнявшие главные роли героев — астронавтов, вынуждены были колесить по всей Америке, выступая на встречах с поклонниками за гроши. В общем, дела у бывших звезд обстояли, мягко говоря, весьма скверно…



Выпущено: США
Продолжительность: 01:42:08
Перевод: 1: Профессиональный (многоголосый, закадровый) + 2: Профессиональный (многоголосый, ОРТ)


Кодек: x264
Качество: BDRip 1080p
Видео: 1920x816, 5488 Kbps, 23.976 fps
Аудио #1: 48 kHz, AC3, 6c, 448 kbps
Аудио #2: 48 kHz, AC3, 2c, 192 kbps
Субтитры: русские (2 вида), английские
Скачать:

General
Unique ID : 232694583802517185851509954734926083446 (0xAF0F58C04BB1FF60A8A6031D32D83576)
Complete name : В поисках галактики.1999.BDRip.1080p.MVO.mkv
Format : Matroska
Format version : Version 2
File size : 4.37 GiB
Duration : 1h 42mn
Overall bit rate : 6 123 Kbps
Movie name : В поисках галактики.1999
Encoded date : UTC 2012-06-17 06:06:10
Writing application : mkvmerge v5.6.0 ('Kenya Kane') built on Jun 1 2012 21:45:42
Writing library : libebml v1.2.3 + libmatroska v1.3.0

Video
ID : 1
Format : AVC
Format/Info : Advanced Video Codec
Format profile : High@L4.1
Format settings, CABAC : Yes
Format settings, ReFrames : 5 frames
Codec ID : V_MPEG4/ISO/AVC
Duration : 1h 42mn
Bit rate : 5 488 Kbps
Width : 1 920 pixels
Height : 816 pixels
Display aspect ratio : 2.35:1
Frame rate : 23.976 fps
Color space : YUV
Chroma subsampling : 4:2:0
Bit depth : 8 bits
Scan type : Progressive
Bits/(Pixel*Frame) : 0.146
Stream size : 3.82 GiB (88%)
Title : Rip by Boriy
Writing library : x264 core 125 r2200 999b753
Encoding settings : cabac=1 / ref=5 / deblock=1:0:0 / analyse=0x3:0x113 / me=umh / subme=10 / psy=1 / psy_rd=1.00:0.10 / mixed_ref=1 / me_range=32 / chroma_me=1 / trellis=2 / 8x8dct=1 / cqm=0 / deadzone=21,11 / fast_pskip=0 / chroma_qp_offset=-3 / threads=12 / lookahead_threads=2 / sliced_threads=0 / nr=0 / decimate=0 / interlaced=0 / bluray_compat=0 / constrained_intra=0 / bframes=5 / b_pyramid=2 / b_adapt=2 / b_bias=0 / direct=3 / weightb=1 / open_gop=0 / weightp=2 / keyint=240 / keyint_min=23 / scenecut=40 / intra_refresh=0 / rc_lookahead=60 / rc=2pass / mbtree=1 / bitrate=5488 / ratetol=1.0 / qcomp=0.60 / qpmin=0 / qpmax=69 / qpstep=4 / cplxblur=20.0 / qblur=0.5 / ip_ratio=1.40 / aq=1:1.00
Language : English
Default : Yes
Forced : No

Audio #1
ID : 2
Format : AC-3
Format/Info : Audio Coding 3
Mode extension : CM (complete main)
Format settings, Endianness : Big
Codec ID : A_AC3
Duration : 1h 42mn
Bit rate mode : Constant
Bit rate : 448 Kbps
Channel(s) : 6 channels
Channel positions : Front: L C R, Side: L R, LFE
Sampling rate : 48.0 KHz
Bit depth : 16 bits
Compression mode : Lossy
Stream size : 327 MiB (7%)
Title : Профессиональный (многоголосый, закадровый)
Language : Russian
Default : Yes
Forced : No

Audio #2
ID : 3
Format : AC-3
Format/Info : Audio Coding 3
Mode extension : CM (complete main)
Format settings, Endianness : Big
Codec ID : A_AC3
Duration : 1h 42mn
Bit rate mode : Constant
Bit rate : 192 Kbps
Channel(s) : 2 channels
Channel positions : Front: L R
Sampling rate : 48.0 KHz
Bit depth : 16 bits
Compression mode : Lossy
Stream size : 140 MiB (3%)
Title : Профессиональный (многоголосый, ОРТ)
Language : Russian
Default : No
Forced : No

Text #1
ID : 4
Format : UTF-8
Codec ID : S_TEXT/UTF8
Codec ID/Info : UTF-8 Plain Text
Title : Full 1
Language : Russian
Default : No
Forced : No

Text #2
ID : 5
Format : UTF-8
Codec ID : S_TEXT/UTF8
Codec ID/Info : UTF-8 Plain Text
Title : Full 2
Language : Russian
Default : No
Forced : No

Text #3
ID : 6
Format : UTF-8
Codec ID : S_TEXT/UTF8
Codec ID/Info : UTF-8 Plain Text
Title : Full
Language : English
Default : No
Forced : No

Menu
00:00:00.000 : :Chapter 1
00:06:14.248 : :Chapter 2
00:11:09.543 : :Chapter 3
00:15:19.418 : :Chapter 4
00:20:05.913 : :Chapter 5
00:25:26.525 : :Chapter 6
00:33:06.234 : :Chapter 7
00:38:25.136 : :Chapter 8
00:42:12.613 : :Chapter 9
00:46:37.085 : :Chapter 10
00:50:24.187 : :Chapter 11
00:55:22.360 : :Chapter 12
01:02:02.051 : :Chapter 13
01:07:23.289 : :Chapter 14
01:10:33.479 : :Chapter 15
01:16:05.519 : :Chapter 16
01:23:24.541 : :Chapter 17
01:28:24.382 : :Chapter 18
01:32:37.927 : :Chapter 19
01:37:30.261 : :Chapter 20
01:42:08.330 : :Chapter 21
загрузка...
Правила, инструкции, FAQ!!!
Торрент  Добавлен [25 янв 2015, 20:02] Скачать торрент
Скачать торрент
[ Размер 22.43 КБ / Просмотров 9 ]

Статус
Проверен 
 
Размер  4.37 ГБ
Приватный: Нет (DHT включён)
.torrent скачан  77
Как залить торрент? | Как скачать Torrent? | Как смотреть и слушать онлайн?  


     Отправить личное сообщение
   
Страница 1 из 1
Показать сообщения за:  Поле сортировки  
Начать новую тему Ответить на тему

   Похожие торренты   Автор   Ответы   Просмотры   Последнее сообщение 
В этой теме нет новых непрочитанных сообщений. Скачать торрент Проверен В поисках галактики / Galaxy Quest (1999) BDRip

в форуме Фантастика, Фэнтези, Размер: 2.64 ГБ, Здоровье: 100%

Гость

0
16|2

93
9

25 янв 2015, 19:58

Гость Перейти к последнему сообщению

В этой теме нет новых непрочитанных сообщений. Скачать торрент Проверен В поисках галактики / Galaxy Quest (1999) HDRip | P

в форуме Фантастика, Фэнтези, Размер: 1.45 ГБ, Здоровье: 100%

Anonymous

0
63|22

80
15

08 апр 2015, 21:26

Anonymous Перейти к последнему сообщению

В этой теме нет новых непрочитанных сообщений. Скачать торрент Проверен Стражи Галактики / Guardians of the Galaxy (2014) BDRip 1080p | IMAX Edition | Лицензия

в форуме 720p | 1080p, Размер: 7.49 ГБ, Здоровье: 77%

Гость

0
134|173

100
60

09 апр 2015, 19:52

Гость Перейти к последнему сообщению

В этой теме нет новых непрочитанных сообщений. Скачать торрент Проверен Стражи Галактики / Guardians of the Galaxy (2014) BDRip 1080p | 3D-Video | HSBS | Лицензия | 60 fps

в форуме HD-Video в 3D, Размер: 14.97 ГБ, Здоровье: 100%

Гость

0
130|30

242
516

21 фев 2015, 19:37

Гость Перейти к последнему сообщению

В этой теме нет новых непрочитанных сообщений. Скачать торрент Проверен Стражи Галактики / Guardians of the Galaxy (2014) BDRip 720p | Лицензия

в форуме 720p | 1080p, Размер: 6.99 ГБ, Здоровье: 100%

Гость

0
370|40

90
1518

21 фев 2015, 19:28

Гость Перейти к последнему сообщению



Сейчас этот форум просматривают: нет зарегистрированных пользователей и гости: 3


Вы не можете начинать темы
Вы не можете отвечать на сообщения
Вы не можете редактировать свои сообщения
Вы не можете удалять свои сообщения
Вы не можете добавлять вложения

Перейти:  

!ВНИМАНИЕ!
 Ресурс не предоставляет электронные версии произведений, а занимается лишь коллекционированием и каталогизацией ссылок, присылаемых и публикуемых на форуме нашими читателями. Если вы являетесь правообладателем какого-либо представленного материала и не желаете чтобы ссылка на него находилась в нашем каталоге, свяжитесь с нами и мы незамедлительно удалим её. Файлы для обмена на трекере предоставлены пользователями сайта, и администрация не несёт ответственности за их содержание. Просьба не заливать файлы, защищенные авторскими правами, а также файлы нелегального содержания!