На всех торрентах на трекере установлена скидка на скачивание в размере 100 процентов(а).
 Возможность скачивания торрента НЕ зависит от ограничений при низком ратио, низком аплоаде, требуемом ратио или требуемом аплоаде.


Начать новую тему Ответить на тему
Статистика раздачи
Размер: 4.21 ГБ | Добавлен: 25 янв 2015, 11:45 | Скачали: 0
Сидеров: 22  [0 байт/сек]    Личеров: 3  [0 байт/сек]
Пред. тема | След. тема 

Автор
Сообщение

СообщениеДобавлено: 25 янв 2015, 11:45 

Страна: Канада, США
Жанр: Боевик, Триллер, Драма

Описание фильма:
Безденежье толкает обыкновенного работягу Майкла в темный мир организованной преступности. Сначала он выполняет мелкие поручения мафии, но наконец-то ему поручили серьезное дело. Майкл и его партнер должны доставить крупную партию денег в Бруклин.
Но по дороге приятели тратят часть денег на девочек, в надежде, что это пройдет незамеченным. Но бандиты обнаруживают недостачу и курьеров превращают в живые мишени. Впрочем, за ними охотится и полиция, которая следит за бандой.

Режиссер: Дэмиан Ли

Актеры: Майкл Дудикофф, Ардон Бесс, Мишель Джонсон, Билли Ди Уильямс, Том Харви, Ноам Дженкинс, Лен Дончефф, Патрик Галлахер, Питер Борецки, Майкл Бернардо, Роберт Томас, Тиг Фонг, Лауро Чартрэнд, Том Мелиссис, Шеннон Классен, Патрик Эзерзер, Josette Garoufallis, Вида Асанте, Роберт Чанг, Teresa Wiwchar, Дэмиан Ли

Продолжительность: 01:28:50
Качество видео: BDRip
Перевод: Профессиональный (многоголосый закадровый) - R5



Видеокодек: MPEG-4 AVC/H.264
Битрейт видео: ~5813 Kb/s
Размер кадра: 1920x1080
Аудио 1: Русский: AC3 5.1; 384 Kbps; 48 kHz; MVO (R5)
Аудио 2: Английский: AC3 5.1; 448 Kbps; 48 kHz; Original
Код:
Код:
Общее
Уникальный идентификатор                 : 226806462124313363271442841555247327159 (0xAAA155F0577E992A85633032F10867B7)
Полное имя                               : Бегущая мишень. Moving Target (1996).mkv
Формат                                   : Matroska
Версия формата                           : Version 4 / Version 2
Размер файла                             : 4,21 Гбайт
Продолжительность                        : 1 ч. 28 м.
Общий поток                              : 6780 Кбит/сек
Дата кодирования                         : UTC 2015-01-21 09:34:51
Программа кодирования                    : mkvmerge v6.9.1 ('Blue Panther') 64bit built on Apr 18 2014 18:23:38
Библиотека кодирования                   : libebml v1.3.0 + libmatroska v1.4.1

Видео
Идентификатор                            : 1
Формат                                   : AVC
Формат/Информация                        : Advanced Video Codec
Профиль формата                          :
Параметр CABAC формата                   : Да
Параметр ReFrames формата                : 4 кадра
Идентификатор кодека                     : V_MPEG4/ISO/AVC
Продолжительность                        : 1 ч. 28 м.
Битрейт                                  : 5813 Кбит/сек
Ширина                                   : 1920 пикселей
Высота                                   : 1080 пикселей
Соотношение сторон                       : 16:9
Режим частоты кадров                     : Постоянный
Частота кадров                           : 24,000 кадра/сек
Цветовое пространство                    : YUV
Субдискретизация насыщенности            : 4:2:0
Битовая глубина                          : 8 бит
Тип развёртки                            : Прогрессивная
Бит/(Пиксели*Кадры)                      : 0.117
Размер потока                            : 3,61 Гбайт (86%)
Библиотека кодирования                   : x264 core 138 r2358 9e941d1
Настройки программы                      : cabac=1 / ref=4 / deblock=1:-3:-3 / analyse=0x3:0x133 / me=umh / subme=8 / psy=1 / psy_rd=1.00:0.15 / mixed_ref=1 / me_range=16 / chroma_me=1 / trellis=1 / 8x8dct=1 / cqm=0 / deadzone=21,11 / fast_pskip=0 / chroma_qp_offset=-3 / threads=12 / lookahead_threads=2 / sliced_threads=0 / nr=0 / decimate=1 / interlaced=0 / bluray_compat=0 / constrained_intra=0 / bframes=3 / b_pyramid=2 / b_adapt=2 / b_bias=0 / direct=3 / weightb=1 / open_gop=0 / weightp=2 / keyint=240 / keyint_min=24 / scenecut=40 / intra_refresh=0 / rc_lookahead=50 / rc=crf / mbtree=1 / crf=20.0 / qcomp=0.60 / qpmin=0 / qpmax=69 / qpstep=4 / ip_ratio=1.40 / aq=1:1.00
Язык                                     : English
Default                                  : Да
Forced                                   : Нет

Аудио #1
Идентификатор                            : 2
Формат                                   : AC-3
Формат/Информация                        : Audio Coding 3
Расширение режима                        : CM (complete main)
Параметр Endianness формата              : Big
Идентификатор кодека                     : A_AC3
Продолжительность                        : 1 ч. 28 м.
Вид битрейта                             : Постоянный
Битрейт                                  : 384 Кбит/сек
Каналы                                   : 6 каналов
Расположение каналов                     : Front: L C R, Side: L R, LFE
Частота                                  : 48,0 КГц
Битовая глубина                          : 16 бит
Метод сжатия                             : С потерями
Размер потока                            : 244 Мбайт (6%)
Язык                                     : Russian
Default                                  : Нет
Forced                                   : Нет

Аудио #2
Идентификатор                            : 3
Формат                                   : AC-3
Формат/Информация                        : Audio Coding 3
Расширение режима                        : CM (complete main)
Параметр Endianness формата              : Big
Идентификатор кодека                     : A_AC3
Продолжительность                        : 1 ч. 28 м.
Вид битрейта                             : Постоянный
Битрейт                                  : 448 Кбит/сек
Каналы                                   : 6 каналов
Расположение каналов                     : Front: L C R, Side: L R, LFE
Частота                                  : 48,0 КГц
Битовая глубина                          : 16 бит
Метод сжатия                             : С потерями
Размер потока                            : 285 Мбайт (7%)
Заголовок                                : eng
Язык                                     : English
Default                                  : Нет
Forced                                   : Нет
Скриншоты:
загрузка...
Правила, инструкции, FAQ!!!
Торрент  Добавлен [25 янв 2015, 11:45] Скачать торрент
Скачать торрент
[ Размер 11.35 КБ / Просмотров 9 ]

Статус
Проверен 
 
Размер  4.21 ГБ
Приватный: Нет (DHT включён)
.torrent скачан  0
Как залить торрент? | Как скачать Torrent? | Как смотреть и слушать онлайн?  


     Отправить личное сообщение
   
Страница 1 из 1
Показать сообщения за:  Поле сортировки  
Начать новую тему Ответить на тему

   Похожие торренты   Автор   Ответы   Просмотры   Последнее сообщение 
В этой теме нет новых непрочитанных сообщений. Скачать торрент Проверен (Heavy Metal, Hard Rock) [CD] Royal Hunt - Moving Target - Royal Hunt - Moving Target - 1995, FLAC (image+.cue), lossless

в форуме Heavy, Power, Progressive (Metal), Размер: 498.34 МБ, Здоровье: 83%

Anonymous

0
5|6

9
1

23 окт 2016, 01:33

Anonymous Перейти к последнему сообщению

В этой теме нет новых непрочитанных сообщений. Скачать торрент Проверен Трудная мишень 2 / Hard Target 2 (2016) HDRip | Лицензия

в форуме Боевики, Размер: 1.45 ГБ, Здоровье: 100%

Гость

0
456|112

101
30

27 авг 2016, 23:28

Гость Перейти к последнему сообщению

В этой теме нет новых непрочитанных сообщений. Скачать торрент Проверен Мишень / The Target / Pyojeok / Point Blank (2014) HDTV 720p | L2

в форуме 720p | 1080p, Размер: 2.33 ГБ, Здоровье: 100%

Anonymous

0
196|8

41
3535

27 сен 2014, 22:27

Anonymous Перейти к последнему сообщению

В этой теме нет новых непрочитанных сообщений. Скачать торрент Проверен (Heavy Metal, Hard Rock) Royal Hunt - Moving Target - 1995, MP3, 320 kbps

в форуме Heavy, Power, Progressive (Metal), Размер: 179.3 МБ, Здоровье: 100%

Anonymous

0
7|2

9
0

23 окт 2016, 01:36

Anonymous Перейти к последнему сообщению

В этой теме нет новых непрочитанных сообщений. Скачать торрент Проверен (Hard Rock/Glam Metal) Double Dealer - Moving Target - 1999, MP3 (tracks), 320 kbps

в форуме Classic Rock & Hard Rock, Размер: 107.15 МБ, Здоровье: 0%

Anonymous

0
0|0

2
0

13 ноя 2016, 15:45

Anonymous Перейти к последнему сообщению



Сейчас этот форум просматривают: нет зарегистрированных пользователей и гости: 1


Вы не можете начинать темы
Вы не можете отвечать на сообщения
Вы не можете редактировать свои сообщения
Вы не можете удалять свои сообщения
Вы не можете добавлять вложения

Перейти:  

!ВНИМАНИЕ!
 Ресурс не предоставляет электронные версии произведений, а занимается лишь коллекционированием и каталогизацией ссылок, присылаемых и публикуемых на форуме нашими читателями. Если вы являетесь правообладателем какого-либо представленного материала и не желаете чтобы ссылка на него находилась в нашем каталоге, свяжитесь с нами и мы незамедлительно удалим её. Файлы для обмена на трекере предоставлены пользователями сайта, и администрация не несёт ответственности за их содержание. Просьба не заливать файлы, защищенные авторскими правами, а также файлы нелегального содержания!