На всех торрентах на трекере установлена скидка на скачивание в размере 100 процентов(а).
 Возможность скачивания торрента НЕ зависит от ограничений при низком ратио, низком аплоаде, требуемом ратио или требуемом аплоаде.


Начать новую тему Ответить на тему
Статистика раздачи
Размер: 4.28 ГБ | Добавлен: 25 янв 2015, 01:20 | Скачали: 9
Сидеров: 5  [0 байт/сек]    Личеров: 21  [0 байт/сек]
Пред. тема | След. тема 

Автор
Сообщение

СообщениеДобавлено: 25 янв 2015, 01:20 

Название: Отдел 13
Оригинальное название: Diamant 13
Год выхода: 2009
Жанр: Боевик, триллер, криминал
Режиссер: Гайллз Бэхат
В ролях: Жерар Депардье, Оливье Маршаль, Азия Ардженто, Анн Косенс, Айсса Майга, Катрин Маршаль, Эрик Деор, Жан-Франсуа Фолфф, Патрик Хаштерт, Орельен Рекуан, Джералд Марти, Саша Кремер, Корентен Лобе, Жан-Мишель Вовк, Бено Вераер, Ив Деген, Валери Бодсон, Ноэль Байе, Франческо Меренда, Бернард Грачик, Вирджиния Арно, Паскаль Раблен, Норберт Рутили, Патрик Кьюинет, Филипп Шапель, Седрик Константин

О фильме:Полицейский начинает охоту на своего лучшего друга, который стал одним из самых крупных торговцев наркотиками города…


Страна: Франция, Бельгия, Люксембург
Студия: Film Fund Luxembourg, Canal+ [fr], Cine Cinemas, MK2 Productions
Продолжительность: 01:41:58
Перевод: Профессиональный многоголосый

Кодек: x264
Качество: BDRip 720p
Видео: MPEG-4 AVC, 4053 Кбит/с, 1280x546, 24.000 кадр/с
Аудио #1: Русский (AC3, 6 ch, 448 Кбит/с) / Профессиональный многоголосый
Аудио #2: Французский (DTS, 6 ch, 1510 Кбит/с)

Семпл

Уникальный идентификатор : 223613746100991244698505771741089477284 (0xA83A70E2B49724449B89E153FB39B2A4)
Полное имя : E:MCOtdel.13.2009.x264.BDRip(720p)-MediaClubOtdel.13.2009.x264.BDRip(720p)-MediaClub.mkv
Формат : Matroska
Версия формата : Version 2
Размер файла : 4,28 Гбайт
Продолжительность : 1 ч. 41 м.
Общий поток : 6011 Кбит/сек
Название фильма : -= Release MediaClub =-
Дата кодирования : UTC 2013-04-10 19:22:41
Программа кодирования : mkvmerge v4.3.0 ('Escape from the Island') сборка от Sep 5 2010 10:30:51
Библиотека кодирования : libebml v1.0.0 + libmatroska v1.0.0

Видео
Идентификатор : 1
Формат : AVC
Формат/Информация : Advanced Video Codec
Профиль формата : High@L4.1
Параметр CABAC формата : Да
Параметр ReFrames формата : 10 кадров
Идентификатор кодека : V_MPEG4/ISO/AVC
Продолжительность : 1 ч. 41 м.
Битрейт : 4053 Кбит/сек
Ширина : 1280 пикселей
Высота : 546 пикселей
Соотношение сторон : 2,35:1
Режим частоты кадров : Постоянный
Частота кадров : 24,000 кадра/сек
Цветовое пространство : YUV
Субдискретизация насыщенности : 4:2:0
Битовая глубина : 8 бит
Тип развёртки : Прогрессивная
Бит/(Пиксели*Кадры) : 0.242
Размер потока : 2,80 Гбайт (65%)
Заголовок : Otdel.13.2009.x264.BDRip(720p)-neni
Библиотека кодирования : x264 core 130 r2273 b3065e6
Настройки программы : cabac=1 / ref=10 / deblock=1:-3:-3 / analyse=0x3:0x113 / me=umh / subme=11 / psy=1 / psy_rd=1.00:0.00 / mixed_ref=1 / me_range=40 / chroma_me=1 / trellis=2 / 8x8dct=1 / cqm=0 / deadzone=21,11 / fast_pskip=0 / chroma_qp_offset=1 / threads=9 / lookahead_threads=1 / sliced_threads=0 / nr=0 / decimate=0 / interlaced=0 / bluray_compat=0 / constrained_intra=0 / bframes=8 / b_pyramid=2 / b_adapt=2 / b_bias=0 / direct=3 / weightb=1 / open_gop=0 / weightp=2 / keyint=240 / keyint_min=24 / scenecut=40 / intra_refresh=0 / rc_lookahead=40 / rc=2pass / mbtree=0 / bitrate=4053 / ratetol=1.0 / qcomp=0.60 / qpmin=0 / qpmax=69 / qpstep=4 / cplxblur=20.0 / qblur=0.5 / vbv_maxrate=50000 / vbv_bufsize=60000 / nal_hrd=none / ip_ratio=1.40 / pb_ratio=1.30 / aq=1:0.80
Язык : Russian
Default : Да
Forced : Да

Аудио #1
Идентификатор : 2
Формат : AC-3
Формат/Информация : Audio Coding 3
Расширение режима : CM (complete main)
Параметр Endianness формата : Big
Идентификатор кодека : A_AC3
Продолжительность : 1 ч. 41 м.
Вид битрейта : Постоянный
Битрейт : 448 Кбит/сек
Каналы : 6 каналов
Расположение каналов : Front: L C R, Side: L R, LFE
Частота : 48,0 КГц
Битовая глубина : 16 бит
Метод сжатия : С потерями
Размер потока : 327 Мбайт (7%)
Заголовок : Russian: 48 kHz, AC3, 3/2 (L,C,R,l,r) + LFE ch, ~448.00 kbps avg |Многоголосый закадровый, R5|
Язык : Russian
Default : Да
Forced : Да

Аудио #2
Идентификатор : 3
Формат : DTS
Формат/Информация : Digital Theater Systems
Режим : 16
Параметр Endianness формата : Big
Идентификатор кодека : A_DTS
Продолжительность : 1 ч. 41 м.
Вид битрейта : Постоянный
Битрейт : 1509 Кбит/сек
Каналы : 6 каналов
Расположение каналов : Front: L C R, Side: L R, LFE
Частота : 48,0 КГц
Битовая глубина : 16 бит
Метод сжатия : С потерями
Размер потока : 1,07 Гбайт (25%)
Заголовок : French: 48 kHz, DTS, 3/2 (L,C,R,l,r) + LFE ch, ~1510.00 kbps avg
Язык : French
Default : Нет
Forced : Нет

Меню
00:00:00.000 : :Chapter 01
00:09:28.125 : :Chapter 02
00:15:58.291 : :Chapter 03
00:25:08.625 : :Chapter 04
00:34:11.333 : :Chapter 05
00:41:47.958 : :Chapter 06
00:49:43.916 : :Chapter 07
00:57:27.208 : :Chapter 08
01:07:58.875 : :Chapter 09
01:15:51.582 : :Chapter 10
01:21:22.332 : :Chapter 11
01:30:30.291 : :Chapter 12



Релиз от: Rip by
загрузка...
Правила, инструкции, FAQ!!!
Торрент  Добавлен [25 янв 2015, 01:20] Скачать торрент
Скачать торрент
[ Размер 21.98 КБ / Просмотров 4 ]

Статус
Проверен 
 
Размер  4.28 ГБ
Приватный: Нет (DHT включён)
.torrent скачан  9
Как залить торрент? | Как скачать Torrent? | Как смотреть и слушать онлайн?  


     Отправить личное сообщение
   
Страница 1 из 1
Показать сообщения за:  Поле сортировки  
Начать новую тему Ответить на тему

   Похожие торренты   Автор   Ответы   Просмотры   Последнее сообщение 
В этой теме нет новых непрочитанных сообщений. Скачать торрент Проверен Тринадцатый отдел / Отдел 13 / Diamant 13 (2009) HDRip l Лицензия

в форуме Боевики, Размер: 1.37 ГБ, Здоровье: 53%

Гость

0
8|15

79
71

25 янв 2015, 01:17

Гость Перейти к последнему сообщению

В этой теме нет новых непрочитанных сообщений. Скачать торрент Проверен Последний бриллиант / Le dernier diamant (2014) BDRip 720p

в форуме 720p | 1080p, Размер: 3.23 ГБ, Здоровье: 100%

Гость

0
162|7

39
1758

23 янв 2015, 16:27

Гость Перейти к последнему сообщению

В этой теме нет новых непрочитанных сообщений. Скачать торрент Проверен Чадович Николай, Брайдер Юрий - Особый отдел 4, Особый отдел и око дьявола [Андрей Кравец, 2015 г., 128 kbps, MP3]

в форуме Российская фантастика, фэнтези, мистика, ужасы, фанфики, Размер: 590.35 МБ, Здоровье: 100%

Anonymous

0
34|11

3
0

10 сен 2016, 19:22

Anonymous Перейти к последнему сообщению

В этой теме нет новых непрочитанных сообщений. Скачать торрент Проверен Юрий Брайдер, Николай Чадович - Особый отдел 2, Особый отдел и тринадцатый опыт [Кравец Андрей, 2013 г., 128 kbps, MP3]

в форуме Российская фантастика, фэнтези, мистика, ужасы, фанфики, Размер: 651.56 МБ, Здоровье: 0%

Anonymous

0
0|0

1
0

10 сен 2016, 20:39

Anonymous Перейти к последнему сообщению

В этой теме нет новых непрочитанных сообщений. Скачать торрент Проверен Карл Мёрк и отдел «Q» - Jussi Adler-Olsen/Юсси Адлер-Ольсен - Сборник произведений (Карл Мёрк и отдел «Q» - 3 книги) [2012, FB2, RUS]

в форуме Детективы и Боевики, Размер: 4.58 МБ, Здоровье: 100%

Anonymous

0
19|6

5
0

08 сен 2016, 22:06

Anonymous Перейти к последнему сообщению



Сейчас этот форум просматривают: нет зарегистрированных пользователей и гости: 2


Вы не можете начинать темы
Вы не можете отвечать на сообщения
Вы не можете редактировать свои сообщения
Вы не можете удалять свои сообщения
Вы не можете добавлять вложения

Перейти:  

!ВНИМАНИЕ!
 Ресурс не предоставляет электронные версии произведений, а занимается лишь коллекционированием и каталогизацией ссылок, присылаемых и публикуемых на форуме нашими читателями. Если вы являетесь правообладателем какого-либо представленного материала и не желаете чтобы ссылка на него находилась в нашем каталоге, свяжитесь с нами и мы незамедлительно удалим её. Файлы для обмена на трекере предоставлены пользователями сайта, и администрация не несёт ответственности за их содержание. Просьба не заливать файлы, защищенные авторскими правами, а также файлы нелегального содержания!