На всех торрентах на трекере установлена скидка на скачивание в размере 100 процентов(а).
 Возможность скачивания торрента НЕ зависит от ограничений при низком ратио, низком аплоаде, требуемом ратио или требуемом аплоаде.


Начать новую тему Ответить на тему
Статистика раздачи
Размер: 2.7 ГБ | Добавлен: 24 янв 2015, 10:21 | Скачали: 0
Сидеров: 851  [0 байт/сек]    Личеров: 19  [0 байт/сек]
Пред. тема | След. тема 

Автор
Сообщение

СообщениеДобавлено: 24 янв 2015, 10:21 

Производство: США, Россия
Жанр: Триллер, Криминал, Драма

Режиссер: Сарик Андреасян
Актеры: Эдриен Броди, Хэйден Кристенсен, Джорданна Брюстер

Описание фильма:
У Джеймса темное прошлое, но сейчас он из всех сил пытается изменить свою жизнь — встречается с красивой девушкой, устроился работать автомехаником, мечтает о собственном бизнесе. Тем временем, его старший брат Френки, отсидевший десять лет в тюрьме, выходит на свободу. Френки пытается наладить отношения, но Джеймс не может простить брата за то, что много лет назад он втянул его в криминал, из-за чего Джеймс отсидел шестнадцать месяцев.
Однако попытки Джеймса начать новую жизнь не складываются: из-за тюремного прошлого он не может рассчитывать на хорошую работу и получает отказы в кредитовании своего бизнеса. Видя это, Френки предлагает Джеймсу «провести небольшое дельце». Он клянется, что это в последний раз и после ограбления банка в Новом Орлеане у них будут деньги, и они вернут свою жизнь, которую когда-то потеряли. В результате «небольшое дельце» станет одним из самых кровавых и драматических налетов в истории Америки…

Перевод: Одноголосый закадровый, авторский
Озвучка / Автор перевода: Алексей Яковлев
Субтитры: Отсутствуют


Дата мировой премьеры: 11.09.2014
Дата российской премьеры: 22.01.2015

Продолжительность: 01:30:53
Качество видео: WEB-DL [H.264/720p-LQ]
Видео: AVC, 960x532@1280x532, 25.000 fps, 3 981 Kbps (0.312 bit/pixel)
Аудио: AC-3, 48.0 KHz, 2 ch, 192 Kbps, CBR
Сэмпл: Скачать
Формат : Matroska
Версия формата : Version 2
Размер файла : 2,70 Гбайт
Продолжительность : 1 ч. 30 м.
Общий поток : 4257 Кбит/сек
Дата кодирования : UTC 2015-01-23 10:30:44
Программа кодирования : mkvmerge v3.0.0 ('Hang up your Hang-Ups') built on Dec 12 2009 15:20:35
Библиотека кодирования : libebml v0.7.9 + libmatroska v0.8.1

Видео
Идентификатор : 1
Формат : AVC
Формат/Информация : Advanced Video Codec
Профиль формата :
Параметр CABAC формата : Нет
Параметр ReFrames формата : 2 кадра
Идентификатор кодека : V_MPEG4/ISO/AVC
Продолжительность : 1 ч. 30 м.
Битрейт : 3981 Кбит/сек
Ширина : 960 пикселей
Высота : 532 пикселя
Соотношение сторон : 2,40:1
Режим частоты кадров : Постоянный
Частота кадров : 25,000 кадров/сек
Цветовое пространство : YUV
Субдискретизация насыщенности : 4:2:0
Битовая глубина : 8 бит
Тип развёртки : Прогрессивная
Бит/(Пиксели*Кадры) : 0.312
Размер потока : 2,53 Гбайт (94%)
Язык : English
Default : Нет
Forced : Нет
Основные цвета : BT.709
Характеристики трансфера : BT.709
Коэффициенты матрицы : BT.709

Аудио
Идентификатор : 2
Формат : AC-3
Формат/Информация : Audio Coding 3
Расширение режима : CM (complete main)
Параметр Endianness формата : Big
Идентификатор кодека : A_AC3
Продолжительность : 1 ч. 30 м.
Вид битрейта : Постоянный
Битрейт : 192 Кбит/сек
Каналы : 2 канала
Расположение каналов : Front: L R
Частота : 48,0 КГц
Битовая глубина : 16 бит
Метод сжатия : С потерями
Размер потока : 125 Мбайт (5%)
Default : Да
Forced : Нет
Скриншоты:

загрузка...
Правила, инструкции, FAQ!!!
Торрент  Добавлен [24 янв 2015, 10:21] Скачать торрент
Скачать торрент
[ Размер 14.36 КБ / Просмотров 7 ]

Статус
Проверен 
 
Размер  2.7 ГБ
Приватный: Нет (DHT включён)
.torrent скачан  0
Как залить торрент? | Как скачать Torrent? | Как смотреть и слушать онлайн?  


     Отправить личное сообщение
   
Страница 1 из 1
Показать сообщения за:  Поле сортировки  
Начать новую тему Ответить на тему

   Похожие торренты   Автор   Ответы   Просмотры   Последнее сообщение 
В этой теме нет новых непрочитанных сообщений. Скачать торрент Проверен Красота по-американски / American Beauty (1999) BDRip 720p

в форуме 720p | 1080p, Размер: 5.08 ГБ, Здоровье: 100%

Anonymous

0
16|2

30
218

11 авг 2014, 00:48

Anonymous Перейти к последнему сообщению

В этой теме нет новых непрочитанных сообщений. Скачать торрент Афера по-американски / American Hustle (2013) BDRip 720p | Лицензия

в форуме 720p | 1080p, Размер: 5.43 ГБ, Здоровье: 0%

Anonymous

0
0|0

45
1

05 апр 2014, 01:27

Anonymous Перейти к последнему сообщению

В этой теме нет новых непрочитанных сообщений. Афера по-американски / American Hustle (2013) DVDScr | L

в форуме Новинки кино

Anonymous

0

169

19 янв 2014, 07:33

Anonymous Перейти к последнему сообщению

В этой теме нет новых непрочитанных сообщений. Скачать торрент Афера по-американски / American Hustle (2013) BDRip-AVC | Лицензия

в форуме Драмы, Мелодрамы, Размер: 2.43 ГБ, Здоровье: ???%

Anonymous

0
0|1

38
0

05 апр 2014, 01:38

Anonymous Перейти к последнему сообщению

В этой теме нет новых непрочитанных сообщений. Скачать торрент Афера по-американски / American Hustle (2013) Blu-ray 1080p | D | лицензия

в форуме Blu-ray, Размер: 31.79 ГБ, Здоровье: 100%

Anonymous

0
3|0

168
915

05 апр 2014, 01:33

Anonymous Перейти к последнему сообщению



Сейчас этот форум просматривают: нет зарегистрированных пользователей и гости: 3


Вы не можете начинать темы
Вы не можете отвечать на сообщения
Вы не можете редактировать свои сообщения
Вы не можете удалять свои сообщения
Вы не можете добавлять вложения

Перейти:  

!ВНИМАНИЕ!
 Ресурс не предоставляет электронные версии произведений, а занимается лишь коллекционированием и каталогизацией ссылок, присылаемых и публикуемых на форуме нашими читателями. Если вы являетесь правообладателем какого-либо представленного материала и не желаете чтобы ссылка на него находилась в нашем каталоге, свяжитесь с нами и мы незамедлительно удалим её. Файлы для обмена на трекере предоставлены пользователями сайта, и администрация не несёт ответственности за их содержание. Просьба не заливать файлы, защищенные авторскими правами, а также файлы нелегального содержания!