На всех торрентах на трекере установлена скидка на скачивание в размере 100 процентов(а).
 Возможность скачивания торрента НЕ зависит от ограничений при низком ратио, низком аплоаде, требуемом ратио или требуемом аплоаде.


Начать новую тему Ответить на тему
Статистика раздачи
Размер: 6.7 ГБ | Добавлен: 24 янв 2015, 09:47 | Скачали: 9692
Сидеров: 2842  [0 байт/сек]    Личеров: 489  [0 байт/сек]
Пред. тема | След. тема 

Автор
Сообщение

СообщениеДобавлено: 24 янв 2015, 09:47 

Название: Ёлки 1914
Год выхода: 2014
Жанр: Комедия, Семейный, Драма
Режиссер: Ольга Харина, Тимур Бекмамбетов, Заур Засеев
Продюсер: Тимур Бекмамбетов, Сергей Агеев, Ольга Харина
В ролях: Константин Хабенский, Иван Ургант, Сергей Светлаков, Евгения Брик, Нина Дворжецкая, Ирина Архипова, Альберт Филозов, Елена Плаксина, Антон Богданов, Ян Цапник
О фильме:
100 лет назад, Российская империя... Канун Рождества. Декабрьские пробки, праздничные гулянья, роскошные балы и скромные праздники, титулованные дворяне и обычные крестьяне, царская семья и солдаты первой мировой войны, прогрессивные поэты и первые фигуристы - все было по-другому, за исключением ... праздника. Люди готовились, жили, верили, мечтали и ждали настоящего чуда - Рождества!

Страна: Россия
Продолжительность: 01:47:27
Перевод: Не требуется (русский)
Файл
Кодек: MPEG-4 AVC/H.264
Качество: BDRip 1080p
Видео: 8500 Kb/s, 1920x804
Звук: AC3 5.1, 448 Kb/s
Субтитры: Отсутствуют
Семпл

Релиз от:
File: D:ВидеоElki.2014.O.BDRip.1080p.mkv
General
Unique ID : 206586227370378044582334828859897792754 (0x9B6B0F6546005CD1860610E59199C8F2)
Complete name : D:ВидеоElki.2014.O.BDRip.1080p.mkv
Format : Matroska
Format version : Version 4 / Version 2
File size : 6.70 GiB
Duration : 1h 47mn
Overall bit rate : 8 931 Kbps
Encoded date : UTC 2015-01-22 13:57:24
Writing application : mkvmerge v6.9.1 ('Blue Panther') 64bit built on Apr 18 2014 18:23:38
Writing library : libebml v1.3.0 + libmatroska v1.4.1
Video
ID : 1
Format : AVC
Format/Info : Advanced Video Codec
Format profile : High@L5.0
Format settings, CABAC : Yes
Format settings, ReFrames : 11 frames
Codec ID : V_MPEG4/ISO/AVC
Duration : 1h 47mn
Bit rate : 8 500 Kbps
Width : 1 920 pixels
Height : 804 pixels
Display aspect ratio : 2.40:1
Frame rate mode : Constant
Frame rate : 24.000 fps
Color space : YUV
Chroma subsampling : 4:2:0
Bit depth : 8 bits
Scan type : Progressive
Bits/(Pixel*Frame) : 0.229
Stream size : 6.23 GiB (93%)
Writing library : x264 core 130 r2273 b3065e6
Encoding settings : cabac=1 / ref=11 / deblock=1:-2:-1 / analyse=0x3:0x133 / me=umh / subme=10 / psy=1 / psy_rd=1.00:0.20 / mixed_ref=1 / me_range=24 / chroma_me=1 / trellis=2 / 8x8dct=1 / cqm=0 / deadzone=21,11 / fast_pskip=1 / chroma_qp_offset=-3 / threads=9 / lookahead_threads=1 / sliced_threads=0 / nr=0 / decimate=1 / interlaced=0 / bluray_compat=0 / constrained_intra=0 / bframes=4 / b_pyramid=2 / b_adapt=2 / b_bias=0 / direct=3 / weightb=1 / open_gop=0 / weightp=2 / keyint=250 / keyint_min=23 / scenecut=40 / intra_refresh=0 / rc_lookahead=60 / rc=2pass / mbtree=1 / bitrate=8500 / ratetol=1.0 / qcomp=0.60 / qpmin=0 / qpmax=69 / qpstep=4 / cplxblur=20.0 / qblur=0.5 / ip_ratio=1.40 / aq=1:1.00
Language : English
Default : Yes
Forced : No
Audio
ID : 2
Format : AC-3
Format/Info : Audio Coding 3
Mode extension : CM (complete main)
Format settings, Endianness : Big
Codec ID : A_AC3
Duration : 1h 47mn
Bit rate mode : Constant
Bit rate : 448 Kbps
Channel(s) : 6 channels
Channel positions : Front: L C R, Side: L R, LFE
Sampling rate : 48.0 KHz
Bit depth : 16 bits
Compression mode : Lossy
Stream size : 344 MiB (5%)
Language : Russian
Default : Yes
Forced : No
загрузка...
Правила, инструкции, FAQ!!!
Торрент  Добавлен [24 янв 2015, 09:47] Скачать торрент
Скачать торрент
[ Размер 17.46 КБ / Просмотров 6 ]

Статус
Проверен 
 
Размер  6.7 ГБ
Приватный: Нет (DHT включён)
.torrent скачан  9692
Как залить торрент? | Как скачать Torrent? | Как смотреть и слушать онлайн?  


     Отправить личное сообщение
   
Страница 1 из 1
Показать сообщения за:  Поле сортировки  
Начать новую тему Ответить на тему

   Похожие торренты   Автор   Ответы   Просмотры   Последнее сообщение 
В этой теме нет новых непрочитанных сообщений. Скачать торрент Проверен Ёлки 1914 (2014) HDRip | Лицензия

в форуме Новинки кино, Размер: 1.46 ГБ, Здоровье: 100%

Гость

0
930|16

272
7

23 янв 2015, 22:39

Гость Перейти к последнему сообщению

В этой теме нет новых непрочитанных сообщений. Скачать торрент Проверен Ёлки 1914 (2014) BDRip [720p]

в форуме 720p | 1080p, Размер: 3.56 ГБ, Здоровье: 100%

Anonymous

0
1026|83

73
0

23 янв 2015, 22:27

Anonymous Перейти к последнему сообщению

В этой теме нет новых непрочитанных сообщений. Скачать торрент Проверен Ёлки 3 (Ольга Харина, Дмитрий Киселёв, Александр Котт) [2013, Россия, Комедия, BDRip 1080p] + Original Rus

в форуме Наше кино (HD Video), Размер: 7.78 ГБ, Здоровье: 100%

Anonymous

0
56|20

55
1

12 апр 2015, 10:56

Anonymous Перейти к последнему сообщению

В этой теме нет новых непрочитанных сообщений. Скачать торрент Проверен Ёлки лохматые (Максим Свешников) [2014, Россия, семейный, комедия, Blu-ray disc 1080p]

в форуме Наше кино (HD Video), Размер: 10.77 ГБ, Здоровье: 100%

Anonymous

0
13|4

34
0

12 апр 2015, 10:59

Anonymous Перейти к последнему сообщению

В этой теме нет новых непрочитанных сообщений. Скачать торрент Проверен Василиса (2014) BDRip 1080p | Лицензия

в форуме 720p | 1080p, Размер: 10.02 ГБ, Здоровье: 17%

Гость

0
12|70

59
13

31 янв 2015, 13:06

Гость Перейти к последнему сообщению



Сейчас этот форум просматривают: нет зарегистрированных пользователей и гости: 2


Вы не можете начинать темы
Вы не можете отвечать на сообщения
Вы не можете редактировать свои сообщения
Вы не можете удалять свои сообщения
Вы не можете добавлять вложения

Перейти:  

!ВНИМАНИЕ!
 Ресурс не предоставляет электронные версии произведений, а занимается лишь коллекционированием и каталогизацией ссылок, присылаемых и публикуемых на форуме нашими читателями. Если вы являетесь правообладателем какого-либо представленного материала и не желаете чтобы ссылка на него находилась в нашем каталоге, свяжитесь с нами и мы незамедлительно удалим её. Файлы для обмена на трекере предоставлены пользователями сайта, и администрация не несёт ответственности за их содержание. Просьба не заливать файлы, защищенные авторскими правами, а также файлы нелегального содержания!