На всех торрентах на трекере установлена скидка на скачивание в размере 100 процентов(а).
 Возможность скачивания торрента НЕ зависит от ограничений при низком ратио, низком аплоаде, требуемом ратио или требуемом аплоаде.


Начать новую тему Ответить на тему
Статистика раздачи
Размер: 3.51 ГБ | Добавлен: 20 янв 2015, 23:42 | Скачали: 0
Сидеров: 300  [0 байт/сек]    Личеров: 198  [0 байт/сек]
Пред. тема | След. тема 

Автор
Сообщение

СообщениеДобавлено: 20 янв 2015, 23:42 

Производство: США, Royal Pictures
Жанр: Фантастика, Триллер

Режиссер: Брэдли Кинг
Продюсер: Рик Монтгомери, Ким Карни, Б.П. Купер
Актеры: Даниэль Панабэйкер, Мэтью О’Лири, Джордж Финн, Джон Рис-Дэвис, Эймин Джозеф, Джейсон Спайсэк, Дэвид Фильоли, Шэрон Мофан, Джудит Дрэйк, Марк С. Хэнсон

Описание фильма:
Трое приятелей — подающий надежды художник и по совместительству управдом
Финн, его девушка официантка и писательница Кэлли и их друг Джаспер,
помешанный на собачьих гонках, — находят в комнате соседа-ученого
странное изобретение — машину, печатающую фотографии из будущего дня.
Теперь Джаспер знает, на каких собак нужно ставить, и Финн и Кэлли
могут, наконец, посвятить себя любимым занятиям. Но вскоре визуальные
пророчества загадочной машины начинают обескураживать и пугать героев…

Перевод: Двуголосый закадровый, любительский
Озвучка / Автор перевода: RAIM & GUGU
Субтитры: Отсутствуют



Дата мировой премьеры: 19 апреля 2014
Дата российской премьеры: 19 сентября 2014

Продолжительность: 01:43:47
Качество видео: WEB-DL [H.264/720p-LQ]

Видеокодек: MPEG-4 AVC/H.264
Битрейт видео: ~4166 kb/s
Размер кадра: 1280x718
Аудио#1 Русский: AC3, 192 kb/s (2 ch)
Аудио#2 Английский: AC3, 384 kb/s (6 ch)
Общее
Уникальный идентификатор : 253077403881344281275493137506653407856 (0xBE64EF5EAB4C58A081FFC8A0C38B8A70)
Полное имя : D:\FILMЬl\Time.Lapse.2014.WEB-DL.720p.mkv
Формат : Matroska
Версия формата : Version 4 / Version 2
Размер файла : 3,51 Гбайт
Продолжительность : 1 ч. 43 м.
Общий поток : 4839 Кбит/сек

Дата кодирования : UTC 2015-01-20 12:46:23
Программа кодирования : mkvmerge v7.5.0 ('Glass Culture') 64bit built on Jan 4 2015 16:48:44
Библиотека кодирования : libebml v1.3.1 + libmatroska v1.4.2

Видео
Идентификатор : 1
Формат : AVC
Формат/Информация : Advanced Video Codec
Профиль формата :
Параметр CABAC формата : Нет
Параметр ReFrames формата : 2 кадра
Идентификатор кодека : V_MPEG4/ISO/AVC
Продолжительность : 1 ч. 43 м.
Битрейт : 4166 Кбит/сек
Ширина : 1280 пикселей
Высота : 718 пикселей
Соотношение сторон : 16:9
Режим частоты кадров : Постоянный
Частота кадров : 23,976 кадра/сек
Цветовое пространство : YUV
Субдискретизация насыщенности : 4:2:0
Битовая глубина : 8 бит
Тип развёртки : Прогрессивная
Бит/(Пиксели*Кадры) : 0.189
Размер потока : 3,02 Гбайт (86%)

Язык : English
Default : Да
Forced : Нет
Основные цвета : BT.709
Характеристики трансфера : BT.709
Коэффициенты матрицы : BT.709

Аудио #1
Идентификатор : 2
Формат : AC-3
Формат/Информация : Audio Coding 3
Расширение режима : CM (complete main)
Параметр Endianness формата : Big
Идентификатор кодека : A_AC3
Продолжительность : 1 ч. 43 м.
Вид битрейта : Постоянный
Битрейт : 192 Кбит/сек
Каналы : 2 канала
Расположение каналов : Front: L R
Частота : 48,0 КГц
Битовая глубина : 16 бит
Метод сжатия : С потерями
Размер потока : 143 Мбайт (4%)
Заголовок : Райм Закиров aka RAIM & GUGU
Язык : Russian
Default : Да
Forced : Да

Аудио #2
Идентификатор : 3
Формат : AC-3
Формат/Информация : Audio Coding 3
Расширение режима : CM (complete main)
Параметр Endianness формата : Big
Идентификатор кодека : A_AC3
Продолжительность : 1 ч. 43 м.
Вид битрейта : Постоянный
Битрейт : 384 Кбит/сек
Каналы : 6 каналов
Расположение каналов : Front: L C R, Side: L R, LFE
Частота : 48,0 КГц
Битовая глубина : 16 бит
Метод сжатия : С потерями
Размер потока : 285 Мбайт (8%)
Язык : English
Default : Нет
Forced : Нет

Меню
00:00:00.000 : en:1
00:10:06.000 : en:2
00:20:53.000 : en:3
00:29:00.000 : en:4
00:39:18.000 : en:5
00:51:38.000 : en:6
01:02:07.000 : en:7
01:10:42.000 : en:8
01:21:21.000 : en:9
01:33:02.000 : en:10
Скриншоты:
загрузка...
Правила, инструкции, FAQ!!!
Торрент  Добавлен [20 янв 2015, 23:42] Скачать торрент
Скачать торрент
[ Размер 18.35 КБ / Просмотров 5 ]

Статус
Проверен 
 
Размер  3.51 ГБ
Приватный: Нет (DHT включён)
.torrent скачан  0
Как залить торрент? | Как скачать Torrent? | Как смотреть и слушать онлайн?  


     Отправить личное сообщение
   
Страница 1 из 1
Показать сообщения за:  Поле сортировки  
Начать новую тему Ответить на тему

   Похожие торренты   Автор   Ответы   Просмотры   Последнее сообщение 
В этой теме нет новых непрочитанных сообщений. Скачать торрент Проверен Ошибка времени / Time Lapse (2014) BDRip 1080p | L2

в форуме 720p | 1080p, Размер: 7.93 ГБ, Здоровье: 95%

Гость

0
116|121

251
110

13 ноя 2015, 16:02

Гость Перейти к последнему сообщению

В этой теме нет новых непрочитанных сообщений. Скачать торрент Проверен Ошибка времени / Time Lapse (2014) BDRip [576p] iPad

в форуме Фильмы для iPod, iPhone, iPad, Размер: 1.82 ГБ, Здоровье: 100%

Anonymous

0
22|1

52
0

13 сен 2015, 01:23

Anonymous Перейти к последнему сообщению

В этой теме нет новых непрочитанных сообщений. Скачать торрент Проверен Ошибка времени / Time Lapse (2015) WEB-DLRip | L2

в форуме Фантастика, Фэнтези, Размер: 1.26 ГБ, Здоровье: 100%

Гость

0
3242|1766

172
112

20 янв 2015, 17:44

Гость Перейти к последнему сообщению

В этой теме нет новых непрочитанных сообщений. Скачать торрент Проверен (Rock) Ошибка Птицы - (2005) - Ошибка Птицы/ (2010) - Ошибка Птицы 2, MP3, 128 - 320 kbps

в форуме Русский Рок, Размер: 132.58 МБ, Здоровье: 0%

Anonymous

0
0|0

5
0

21 авг 2016, 07:46

Anonymous Перейти к последнему сообщению

В этой теме нет новых непрочитанных сообщений. Скачать торрент Проверен Дмитрий Емец | Ошибка грифона (2015) [FB2]

в форуме Фантастика, фэнтези, Размер: 1.2 МБ, Здоровье: 100%

Гость

0
15|2

115
6

22 июн 2015, 23:45

Гость Перейти к последнему сообщению



Сейчас этот форум просматривают: нет зарегистрированных пользователей и гости: 1


Вы не можете начинать темы
Вы не можете отвечать на сообщения
Вы не можете редактировать свои сообщения
Вы не можете удалять свои сообщения
Вы не можете добавлять вложения

Перейти:  

!ВНИМАНИЕ!
 Ресурс не предоставляет электронные версии произведений, а занимается лишь коллекционированием и каталогизацией ссылок, присылаемых и публикуемых на форуме нашими читателями. Если вы являетесь правообладателем какого-либо представленного материала и не желаете чтобы ссылка на него находилась в нашем каталоге, свяжитесь с нами и мы незамедлительно удалим её. Файлы для обмена на трекере предоставлены пользователями сайта, и администрация не несёт ответственности за их содержание. Просьба не заливать файлы, защищенные авторскими правами, а также файлы нелегального содержания!