На всех торрентах на трекере установлена скидка на скачивание в размере 100 процентов(а).
 Возможность скачивания торрента НЕ зависит от ограничений при низком ратио, низком аплоаде, требуемом ратио или требуемом аплоаде.


Начать новую тему Ответить на тему
Статистика раздачи
Размер: 4 ГБ | Добавлен: 19 янв 2015, 21:32 | Скачали: 292
Сидеров: 72  [0 байт/сек]    Личеров: 11  [0 байт/сек]
Пред. тема | След. тема 

Автор
Сообщение

СообщениеДобавлено: 19 янв 2015, 21:32 

Название: Признания опасного человека
Оригинальное название: Confessions Of A Dangerous Mind
Год выхода: 2002
Жанр: Триллер, Комедия, Криминал
Режиссер: Джордж Клуни
В ролях: Сэм Рокуэлл, Джордж Клуни, Дик Кларк, Джулия Робертс, Мишель Суини, Дрю Бэрримор, Челси Сеси, Майкл Сера, Айми Роуз Амброзиак, Изабель Блэ, Мелисса Картер, Дженнифер Холл
О фильме:
По автобиографической книге Чака Бэрриса. Чак Бэррис был автором популярнейших телевизионных развлекательных программ шестидесятых годов. Но не всегда у него дела шли гладко, и однажды, в период очередного кризиса, ему предлагает работу ЦРУ. Бэррису позарез нужны деньги и он соглашается.
Он проходит военную подготовку, где в совершенстве овладевает искусством профессионально отбирать человеческие жизни. Теперь он живет двумя жизнями: в одной он убивает тех, кого правительство сочло за врагов, а в другой он по-прежнему создатель рейтинговых телевизионных шоу.


Страна: США
Продолжительность: 01:53:33
Перевод: Профессиональный (полное дублирование)
Файл
Кодек: V_MPEG4/ISO/AVC H.264
Формат: MKV
Качество: BDRip 720p
Видео: 1280 x 536 (2.388) at 23.976 fps/AVC at 4558 Кбит/сек
Звук: AC-3 at 384 Кбит/сек/6 каналов, 48,0 КГц

Видео
Идентификатор : 1
Формат : AVC
Формат/Информация : Advanced Video Codec
Профиль формата : High@L4.0
Параметр CABAC формата : Да
Параметр ReFrames формата : 11 кадров
Идентификатор кодека : V_MPEG4/ISO/AVC
Продолжительность : 1 ч. 53 м.
Битрейт : 4558 Кбит/сек
Ширина : 1280 пикселей
Высота : 536 пикселей
Соотношение сторон : 2,40:1
Частота кадров : 23,976 кадра/сек
Цветовое пространство : YUV
Субдискретизация насыщенности : 4:2:0
Битовая глубина : 8 бит
Тип развёртки : Прогрессивная
Бит/(Пиксели*Кадры) : 0.277
Размер потока : 3,62 Гбайт (90%)
Библиотека кодирования : x264 core 119 r2106kMod 07efeb4
Язык : English
Default : Нет
Forced : Нет
Коэффициенты матрицы : BT.709-5, BT.1361, IEC 61966-2-4 709, SMPTE RP177
Аудио
Идентификатор : 2
Формат : AC-3
Формат/Информация : Audio Coding 3
Расширение режима : CM (complete main)
Идентификатор кодека : A_AC3
Продолжительность : 1 ч. 53 м.
Вид битрейта : Постоянный
Битрейт : 384 Кбит/сек
Каналы : 6 каналов
Расположение каналов : Front: L C R, Side: L R, LFE
Частота : 48,0 КГц
Битовая глубина : 16 бит
Метод сжатия : С потерями
Размер потока : 312 Мбайт (8%)
Заголовок : Dub
Язык : Russian
Default : Нет
Forced : Нет
загрузка...
Правила, инструкции, FAQ!!!
Торрент  Добавлен [19 янв 2015, 21:32] Скачать торрент
Скачать торрент
[ Размер 20.62 КБ / Просмотров 4 ]

Статус
Проверен 
 
Размер  4 ГБ
Приватный: Нет (DHT включён)
.torrent скачан  292
Как залить торрент? | Как скачать Torrent? | Как смотреть и слушать онлайн?  


     Отправить личное сообщение
   
Страница 1 из 1
Показать сообщения за:  Поле сортировки  
Начать новую тему Ответить на тему

   Похожие торренты   Автор   Ответы   Просмотры   Последнее сообщение 
В этой теме нет новых непрочитанных сообщений. Скачать торрент Проверен Признания опасного человека / Confessions of a Dangerous Mind (2002) HDRip | D

в форуме Триллеры, Размер: 1.45 ГБ, Здоровье: 100%

Гость

0
91|48

45
60

08 янв 2015, 01:05

Гость Перейти к последнему сообщению

В этой теме нет новых непрочитанных сообщений. Скачать торрент Проверен Цена человека / Il capitale umano (2013) BDRip 720p | P

в форуме 720p | 1080p, Размер: 6.45 ГБ, Здоровье: 100%

Anonymous

0
235|194

58
637

26 мар 2015, 21:33

Anonymous Перейти к последнему сообщению

В этой теме нет новых непрочитанных сообщений. Скачать торрент Проверен Duran Duran - A Diamond In The Mind: Live 2011 [2012, Pop Rock, New Wave, BDRip 720p]

в форуме Концерты (HD-Video), Размер: 5.46 ГБ, Здоровье: 100%

Anonymous

0
7|2

2
0

23 окт 2016, 14:20

Anonymous Перейти к последнему сообщению

В этой теме нет новых непрочитанных сообщений. Скачать торрент Проверен (Progressive Metal) Mind Colour - Mind Colour - 2002, MP3 (tracks), 320 kbps

в форуме Heavy, Power, Progressive (Metal), Размер: 150.02 МБ, Здоровье: 0%

Anonymous

0
0|0

1
0

08 окт 2016, 13:16

Anonymous Перейти к последнему сообщению

В этой теме нет новых непрочитанных сообщений. Скачать торрент Проверен Pagan's Mind - Full Circle: Live At Center Stage 2014 [2015, Progressive Rock, Progressive Heavy Metal, BDRip 720p]

в форуме Концерты (HD-Video), Размер: 9.81 ГБ, Здоровье: 100%

Anonymous

0
1|0

0
0

23 окт 2016, 15:25

Anonymous Перейти к последнему сообщению



Сейчас этот форум просматривают: нет зарегистрированных пользователей и гости: 2


Вы не можете начинать темы
Вы не можете отвечать на сообщения
Вы не можете редактировать свои сообщения
Вы не можете удалять свои сообщения
Вы не можете добавлять вложения

Перейти:  

!ВНИМАНИЕ!
 Ресурс не предоставляет электронные версии произведений, а занимается лишь коллекционированием и каталогизацией ссылок, присылаемых и публикуемых на форуме нашими читателями. Если вы являетесь правообладателем какого-либо представленного материала и не желаете чтобы ссылка на него находилась в нашем каталоге, свяжитесь с нами и мы незамедлительно удалим её. Файлы для обмена на трекере предоставлены пользователями сайта, и администрация не несёт ответственности за их содержание. Просьба не заливать файлы, защищенные авторскими правами, а также файлы нелегального содержания!