На всех торрентах на трекере установлена скидка на скачивание в размере 100 процентов(а).
 Возможность скачивания торрента НЕ зависит от ограничений при низком ратио, низком аплоаде, требуемом ратио или требуемом аплоаде.


Начать новую тему Ответить на тему
Статистика раздачи
Размер: 7.95 ГБ | Добавлен: 19 янв 2015, 21:28 | Скачали: 24
Сидеров: 20  [0 байт/сек]    Личеров: 29  [0 байт/сек]
Пред. тема | След. тема 

Автор
Сообщение

СообщениеДобавлено: 19 янв 2015, 21:28 

Название: Подрывники / Сметенные огнем
Оригинальное название: Blown Away
Год выхода: 1994
Жанр: Боевик, триллер
Режиссер: Стивен Хопкинс
В ролях: Джефф Бриджес, Томми Ли Джонс, Форест Уитакер, Ллойд Бриджес, Сьюзи Эймис, Джон Финн, Стефи Лайнберг, Кэйтлин Кларк, Кристофер Де Они.
О фильме:
Работающий в полиции сапер собирается жениться на прекрасной женщине, у которой есть замечательная дочка. Но его будущая жена не знает о прошлом своего мужа. А тот в молодости был ирландским террористом, специализирующимся на взрывах. Когда-то он предотвратил взрыв, в результате которого могли погибнуть сотни людей, но невольно стал причиной гибели своих товарищей и любимой девушки, дочери человека, который увлек его ложным героизмом этой жестокой борьбы и научил всему, что можно знать о бомбах. Сбежав из тюрьмы, учитель находит неблагодарного ученика и начинает мстить за предательство, убивая его коллег по работе, а в конце планируя убить его новую семью.

Выпущено: США / Metro-Goldwyn-Mayer (MGM), Trilogy Entertainment Group
Продолжительность: 01:55:46
Перевод: Профессиональный многоголосый, авторский

Кодек: MPEG-4 AVC
Качество: HDTVRip 1080p
Видео: 1920x800 25,00 fps, 8485 kbps
Звук:
Russian: AC3, 384 Kbps (6 ch) Профессиональный многоголосый (R5)
Russian: AC3, 192 Kbps (2 ch) Авторский (А.Гаврилов)
Russian: AC3, 192 Kbps (2 ch) Авторский (В.Горчаков)
Russian: AC3, 192 Kbps (2 ch) Авторский (С.Визгунов)
English: AC3, 384 Kbps (6 ch) Original
Семпл
Общее
Уникальный идентификатор : 219727071777448619031996289055913717307 (0xA54DE50BE71907319DA545946154AE3B)
Полное имя : Blown.Away.1994.x264.HDTVRip.1080р.mkv
Формат : Matroska
Версия формата : Version 4 / Version 2
Размер файла : 7,95 Гбайт
Продолжительность : 1 ч. 55 м.
Общий поток : 9827 Кбит/сек
Название фильма : ☭WIDDER☭
Дата кодирования : UTC 2013-06-26 09:34:06
Программа кодирования : mkvmerge v6.2.0 ('Promised Land') built on Apr 28 2013 12:22:01
Библиотека кодирования : libebml v1.3.0 + libmatroska v1.4.0

Видео
Идентификатор : 1
Формат : AVC
Формат/Информация : Advanced Video Codec
Профиль формата : High@L4.1
Параметр CABAC формата : Да
Параметр ReFrames формата : 5 кадров
Идентификатор кодека : V_MPEG4/ISO/AVC
Продолжительность : 1 ч. 55 м.
Битрейт : 8485 Кбит/сек
Ширина : 1920 пикселей
Высота : 800 пикселей
Соотношение сторон : 2,40:1
Режим частоты кадров : Постоянный
Частота кадров : 25,000 кадров/сек
Цветовое пространство : YUV
Субдискретизация насыщенности : 4:2:0
Битовая глубина : 8 бит
Тип развёртки : Прогрессивная
Бит/(Пиксели*Кадры) : 0.221
Размер потока : 6,70 Гбайт (84%)
Заголовок : Подрывники / Сметенные огнем / Blown Away (1994)
Библиотека кодирования : x264 core 133 r2334 a3ac64b
Настройки программы : cabac=1 / ref=5 / deblock=1:-3:-3 / analyse=0x3:0x133 / me=umh / subme=11 / psy=1 / psy_rd=1.00:0.00 / mixed_ref=1 / me_range=32 / chroma_me=1 / trellis=2 / 8x8dct=1 / cqm=0 / deadzone=21,11 / fast_pskip=0 / chroma_qp_offset=-2 / threads=12 / lookahead_threads=1 / sliced_threads=0 / nr=0 / decimate=1 / interlaced=0 / bluray_compat=0 / constrained_intra=0 / bframes=6 / b_pyramid=2 / b_adapt=2 / b_bias=0 / direct=3 / weightb=1 / open_gop=0 / weightp=2 / keyint=250 / keyint_min=25 / scenecut=40 / intra_refresh=0 / rc_lookahead=60 / rc=2pass / mbtree=0 / bitrate=8485 / ratetol=1.0 / qcomp=0.60 / qpmin=0 / qpmax=69 / qpstep=4 / cplxblur=20.0 / qblur=0.5 / vbv_maxrate=50000 / vbv_bufsize=60000 / nal_hrd=none / ip_ratio=1.40 / pb_ratio=1.30 / aq=1:1.00
Язык : English
Default : Да
Forced : Нет

Аудио #1
Идентификатор : 2
Формат : AC-3
Формат/Информация : Audio Coding 3
Расширение режима : CM (complete main)
Параметр Endianness формата : Big
Идентификатор кодека : A_AC3
Продолжительность : 1 ч. 55 м.
Вид битрейта : Постоянный
Битрейт : 384 Кбит/сек
Каналы : 6 каналов
Расположение каналов : Front: L C R, Side: L R, LFE
Частота : 48,0 КГц
Битовая глубина : 16 бит
Метод сжатия : С потерями
Размер потока : 318 Мбайт (4%)
Заголовок : AC3, 384 Kbps (6 ch) Профессиональный многоголосый (R5)
Язык : Russian
Default : Да
Forced : Нет

Аудио #2
Идентификатор : 3
Формат : AC-3
Формат/Информация : Audio Coding 3
Расширение режима : CM (complete main)
Параметр Endianness формата : Big
Идентификатор кодека : A_AC3
Продолжительность : 1 ч. 55 м.
Вид битрейта : Постоянный
Битрейт : 192 Кбит/сек
Каналы : 2 канала
Расположение каналов : Front: L R
Частота : 48,0 КГц
Битовая глубина : 16 бит
Метод сжатия : С потерями
Размер потока : 159 Мбайт (2%)
Заголовок : AC3, 192 Kbps (2 ch) Авторский (А.Гаврилов)
Язык : Russian
Default : Нет
Forced : Нет

Аудио #3
Идентификатор : 4
Формат : AC-3
Формат/Информация : Audio Coding 3
Расширение режима : CM (complete main)
Параметр Endianness формата : Big
Идентификатор кодека : A_AC3
Продолжительность : 1 ч. 55 м.
Вид битрейта : Постоянный
Битрейт : 192 Кбит/сек
Каналы : 2 канала
Расположение каналов : Front: L R
Частота : 48,0 КГц
Битовая глубина : 16 бит
Метод сжатия : С потерями
Размер потока : 159 Мбайт (2%)
Заголовок : AC3, 192 Kbps (2 ch) Авторский (В.Горчаков)
Язык : Russian
Default : Нет
Forced : Нет

Аудио #4
Идентификатор : 5
Формат : AC-3
Формат/Информация : Audio Coding 3
Расширение режима : CM (complete main)
Параметр Endianness формата : Big
Идентификатор кодека : A_AC3
Продолжительность : 1 ч. 55 м.
Вид битрейта : Постоянный
Битрейт : 192 Кбит/сек
Каналы : 2 канала
Расположение каналов : Front: L R
Частота : 48,0 КГц
Битовая глубина : 16 бит
Метод сжатия : С потерями
Размер потока : 159 Мбайт (2%)
Заголовок : AC3, 192 Kbps (2 ch) Авторский (С.Визгунов)
Язык : Russian
Default : Нет
Forced : Нет

Аудио #5
Идентификатор : 6
Формат : AC-3
Формат/Информация : Audio Coding 3
Профиль формата : Dolby Digital
Расширение режима : CM (complete main)
Параметр Endianness формата : Big
Идентификатор кодека : A_AC3
Продолжительность : 1 ч. 55 м.
Вид битрейта : Постоянный
Битрейт : 384 Кбит/сек
Каналы : 2 канала
Расположение каналов : Front: L R
Частота : 48,0 КГц
Битовая глубина : 16 бит
Метод сжатия : С потерями
Размер потока : 318 Мбайт (4%)
Заголовок : AC3, 384 Kbps (6 ch) Original
Язык : English
Default : Нет
Forced : Нет
____________________________________________
x264 [info]: frame I:1168 Avg QP:14.57 size:140411
x264 [info]: frame P:47479 Avg QP:16.72 size: 68865
x264 [info]: frame B:125011 Avg QP:18.89 size: 31431
x264 [info]: consecutive B-frames: 3.2% 7.6% 9.3% 46.1% 26.1% 4.4% 3.3%




Релиз от:
загрузка...
Правила, инструкции, FAQ!!!
Торрент  Добавлен [19 янв 2015, 21:28] Скачать торрент
Скачать торрент
[ Размер 40.25 КБ / Просмотров 3 ]

Статус
Проверен 
 
Размер  7.95 ГБ
Приватный: Нет (DHT включён)
.torrent скачан  24
Как залить торрент? | Как скачать Torrent? | Как смотреть и слушать онлайн?  


     Отправить личное сообщение
   
Страница 1 из 1
Показать сообщения за:  Поле сортировки  
Начать новую тему Ответить на тему

   Похожие торренты   Автор   Ответы   Просмотры   Последнее сообщение 
В этой теме нет новых непрочитанных сообщений. Скачать торрент Проверен Подрывники / Унесенные взрывом / Сметенные огнем / Blown Away (1994) HDTVRip | P

в форуме Боевики, Размер: 1.45 ГБ, Здоровье: 100%

Гость

0
29|9

109
20

19 янв 2015, 21:26

Гость Перейти к последнему сообщению

В этой теме нет новых непрочитанных сообщений. Скачать торрент Проверен Они сражались за Родину (1975) HDTVRip [1080р] [Полная версия]

в форуме 720p | 1080p, Размер: 6.04 ГБ, Здоровье: 100%

Anonymous

0
29|1

35
2

05 июл 2014, 23:46

Anonymous Перейти к последнему сообщению

В этой теме нет новых непрочитанных сообщений. Скачать торрент Проверен Kiss - Kiss My Ass [1994, rock, documentary, HDTV 1080р]

в форуме Концерты (HD-Video), Размер: 7.29 ГБ, Здоровье: 100%

Anonymous

0
7|6

64
2

29 апр 2015, 19:33

Anonymous Перейти к последнему сообщению

В этой теме нет новых непрочитанных сообщений. Скачать торрент Проверен (Classic Rock) Heronimus Fin - Blown Into Another Man's Sky - 2016, MP3, 320 kbps

в форуме Classic Rock & Hard Rock, Размер: 106.2 МБ, Здоровье: 0%

Anonymous

0
0|0

0
0

13 ноя 2016, 18:42

Anonymous Перейти к последнему сообщению

В этой теме нет новых непрочитанных сообщений. Скачать торрент Проверен (Country, Pop) Carrie Underwood - Blown Away - 2012, FLAC (tracks), lossless

в форуме Зарубежная музыка, Размер: 384.25 МБ, Здоровье: 0%

Anonymous

0
0|0

1
1

16 авг 2016, 21:43

Anonymous Перейти к последнему сообщению



Сейчас этот форум просматривают: нет зарегистрированных пользователей и гости: 1


Вы не можете начинать темы
Вы не можете отвечать на сообщения
Вы не можете редактировать свои сообщения
Вы не можете удалять свои сообщения
Вы не можете добавлять вложения

Перейти:  

!ВНИМАНИЕ!
 Ресурс не предоставляет электронные версии произведений, а занимается лишь коллекционированием и каталогизацией ссылок, присылаемых и публикуемых на форуме нашими читателями. Если вы являетесь правообладателем какого-либо представленного материала и не желаете чтобы ссылка на него находилась в нашем каталоге, свяжитесь с нами и мы незамедлительно удалим её. Файлы для обмена на трекере предоставлены пользователями сайта, и администрация не несёт ответственности за их содержание. Просьба не заливать файлы, защищенные авторскими правами, а также файлы нелегального содержания!