На всех торрентах на трекере установлена скидка на скачивание в размере 100 процентов(а).
 Возможность скачивания торрента НЕ зависит от ограничений при низком ратио, низком аплоаде, требуемом ратио или требуемом аплоаде.


Начать новую тему Ответить на тему
Статистика раздачи
Размер: 9.77 ГБ | Добавлен: 18 янв 2015, 12:53 | Скачали: 0
Сидеров: 148  [0 байт/сек]    Личеров: 12  [0 байт/сек]
Пред. тема | След. тема 

Автор
Сообщение

СообщениеДобавлено: 18 янв 2015, 12:53 

Производство: США, Affirm Films, Cinematic
Жанр: Фантастика, Ужасы, Триллер
Перевод: Двуголосый закадровый, любительский [DeadSno & den904]
Субтитры: Вшитые (отключаемые)
Язык субтитров: Английские

Дата мировой премьеры: 25 августа 2014
Дата российской премьеры: 19 февраля 2015

Режиссер: Кэйси Ла Скала
Продюсер: Марк Бьенсток
Актеры: Джонни Пакар, Шон Сайпос, Брайан Дечарт, Алекса ПенаВега, Италиа Риччи, Джон Пайпер-Фергюсон, Ким Пачеко, Хейли Ловитт, Эрин Мерфи

Описание фильма:
Несколько молодых людей собираются вместе, чтобы отпраздновать свадьбу двух своих друзей. Во время празднования происходит череда катастрофических событий, которая превращает празднование в борьбу не на жизнь, а на смерть. Герои отчаянно сражаются за свое убежище, за свои жизни с врагом, которого они никогда не встречали…



Продолжительность: 01:27:50
Качество видео: BDRip

Видеокодек: MPEG-4 AVC/H.264
Битрейт видео: ~13500 Кбит/с
Размер кадра: 1920x1040

Аудио1: Русский АС3, 6 ch, 640 Кбит/с
Аудио3: Английский DTS, 6 ch, 1510 Кбит/с

Сэмпл: Скачать
Чаптеры: Сохранены оригинальные чаптеры как на Blu-ray
General
Complete name : E:\NMN Club\The.Remaining.2014.BDRip.1080p.mkv
Format : Matroska
File size : 9.77 GiB
Duration : 1h 27mn
Overall bit rate : 15.9 Mbps
Encoded date : UTC 2015-01-16 20:20:11
Writing application : mkvmerge v7.5.0 ('Glass Culture') 64bit built on Jan 4 2015 16:48:44
Writing library : libebml v1.3.1 + libmatroska v1.4.2

Video
ID : 1
Format : AVC
Format/Info : Advanced Video Codec
Format profile :
Format settings, CABAC : Yes
Format settings, ReFrames : 4 frames
Muxing mode : Container profile=Unknown@4.1
Codec ID : V_MPEG4/ISO/AVC
Duration : 1h 27mn
Bit rate : 13.5 Mbps
Width : 1 920 pixels
Height : 1 040 pixels
Display aspect ratio : 16:9
Frame rate : 23.976 fps
Resolution : 8 bits
Colorimetry : 4:2:0
Scan type : Progressive
Bits/(Pixel*Frame) : 0.281
Stream size : 8.25 GiB (84%)
Writing library : x264 core 144 r2525 40bb568
Encoding settings : cabac=1 / ref=4 / deblock=1:-3:-3 / analyse=0x3:0x133 / me=umh / subme=11 / psy=1 / psy_rd=1.00:0.00 / mixed_ref=1 / me_range=32 / chroma_me=1 / trellis=2 / 8x8dct=1 / cqm=0 / deadzone=21,11 / fast_pskip=0 / chroma_qp_offset=-2 / threads=18 / lookahead_threads=4 / sliced_threads=0 / nr=0 / decimate=0 / interlaced=0 / bluray_compat=0 / constrained_intra=0 / bframes=12 / b_pyramid=2 / b_adapt=2 / b_bias=0 / direct=3 / weightb=1 / open_gop=0 / weightp=2 / keyint=250 / keyint_min=24 / scenecut=40 / intra_refresh=0 / rc_lookahead=60 / rc=crf / mbtree=0 / crf=17.2 / qcomp=0.68 / qpmin=0 / qpmax=69 / qpstep=4 / vbv_maxrate=38000 / vbv_bufsize=30000 / crf_max=0.0 / nal_hrd=none / filler=0 / ip_ratio=1.20 / pb_ratio=1.10 / aq=1:0.70
Matrix coefficients : BT.709-5, BT.1361, IEC 61966-2-4 709, SMPTE RP177

Audio #1
ID : 2
Format : AC-3
Format/Info : Audio Coding 3
Codec ID : A_AC3
Duration : 1h 27mn
Bit rate mode : Constant
Bit rate : 640 Kbps
Channel(s) : 6 channels
Channel positions : Front: L C R, Surround: L R, LFE
Sampling rate : 48.0 KHz
Stream size : 402 MiB (4%)
Title : Влад и Снежинка
Language : Russian

Audio #2
ID : 3
Format : DTS
Format/Info : Digital Theater Systems
Codec ID : A_DTS
Duration : 1h 27mn
Bit rate mode : Constant
Bit rate : 1 510 Kbps
Channel(s) : 6 channels
Channel positions : Front: L C R, Surround: L R, LFE
Sampling rate : 48.0 KHz
Resolution : 24 bits
Stream size : 949 MiB (9%)

Text #1
ID : 4
Format : UTF-8
Codec ID : S_TEXT/UTF8
Codec ID/Info : UTF-8 Plain Text
Language : Russian

Text #2
ID : 5
Format : UTF-8
Codec ID : S_TEXT/UTF8
Codec ID/Info : UTF-8 Plain Text

Text #3
ID : 6
Format : UTF-8
Codec ID : S_TEXT/UTF8
Codec ID/Info : UTF-8 Plain Text
Title : SDH

Menu
00:00:00.000 : en:00:00:00.000
00:06:06.616 : en:00:06:06.616
00:10:38.972 : en:00:10:38.972
00:16:27.069 : en:00:16:27.069
00:26:16.658 : en:00:26:16.658
00:32:54.055 : en:00:32:54.055
00:42:45.438 : en:00:42:45.438
00:46:11.310 : en:00:46:11.310
00:49:39.977 : en:00:49:39.977
00:55:47.135 : en:00:55:47.135
00:57:37.287 : en:00:57:37.287
01:02:49.641 : en:01:02:49.641
01:07:54.696 : en:01:07:54.696
01:11:14.437 : en:01:11:14.437
01:15:49.295 : en:01:15:49.295
01:20:33.954 : en:01:20:33.954

Скриншоты:

загрузка...
Правила, инструкции, FAQ!!!
Торрент  Добавлен [18 янв 2015, 12:53] Скачать торрент
Скачать торрент
[ Размер 49.58 КБ / Просмотров 15 ]

Статус
Проверен 
 
Размер  9.77 ГБ
Приватный: Нет (DHT включён)
.torrent скачан  0
Как залить торрент? | Как скачать Torrent? | Как смотреть и слушать онлайн?  


     Отправить личное сообщение
   
Страница 1 из 1
Показать сообщения за:  Поле сортировки  
Начать новую тему Ответить на тему

   Похожие торренты   Автор   Ответы   Просмотры   Последнее сообщение 
В этой теме нет новых непрочитанных сообщений. Скачать торрент Проверен Оставшийся / The Remaining (2014) HDRip [H.264]

в форуме Ужасы, Размер: 1.46 ГБ, Здоровье: 0%

Гость

0
0|0

110
1

18 янв 2015, 12:35

Гость Перейти к последнему сообщению

В этой теме нет новых непрочитанных сообщений. Скачать торрент Проверен Оставшийся в живых / Survivor (2014) BDRip 720p | L1

в форуме Фантастика, Фэнтези, Размер: 4.62 ГБ, Здоровье: 100%

Anonymous

0
196|8

63
6027

02 авг 2014, 16:20

Anonymous Перейти к последнему сообщению

В этой теме нет новых непрочитанных сообщений. Скачать торрент Проверен Оставшийся в живых / Survivor (2014) HDRip | L1

в форуме Фантастика, Фэнтези, Размер: 1.37 ГБ, Здоровье: 100%

Anonymous

0
493|12

65
17505

02 авг 2014, 10:35

Anonymous Перейти к последнему сообщению

В этой теме нет новых непрочитанных сообщений. Скачать торрент Проверен [iPad] Оставшиеся / The Remaining (Кэйси Ла Скала / Casey La Scala ) [2014, США, Ужасы, триллер, HDRip, SD (576p)] DVO + Original + sub (eng)

в форуме Фильмы для iPod, iPhone, iPad, Размер: 1.54 ГБ, Здоровье: 100%

Гость

0
14|4

26
0

13 май 2015, 23:57

Гость Перейти к последнему сообщению

В этой теме нет новых непрочитанных сообщений. Скачать торрент Проверен L'Arc-en-Ciel - live 2014 at Kokuritsu Kyogijo [2014, Rock, BDRip 1080p]

в форуме Концерты (HD-Video), Размер: 8.06 ГБ, Здоровье: 100%

Anonymous

0
58|13

202
13

29 апр 2015, 19:29

Anonymous Перейти к последнему сообщению



Сейчас этот форум просматривают: нет зарегистрированных пользователей и гости: 2


Вы не можете начинать темы
Вы не можете отвечать на сообщения
Вы не можете редактировать свои сообщения
Вы не можете удалять свои сообщения
Вы не можете добавлять вложения

Перейти:  

!ВНИМАНИЕ!
 Ресурс не предоставляет электронные версии произведений, а занимается лишь коллекционированием и каталогизацией ссылок, присылаемых и публикуемых на форуме нашими читателями. Если вы являетесь правообладателем какого-либо представленного материала и не желаете чтобы ссылка на него находилась в нашем каталоге, свяжитесь с нами и мы незамедлительно удалим её. Файлы для обмена на трекере предоставлены пользователями сайта, и администрация не несёт ответственности за их содержание. Просьба не заливать файлы, защищенные авторскими правами, а также файлы нелегального содержания!