На всех торрентах на трекере установлена скидка на скачивание в размере 100 процентов(а).
 Возможность скачивания торрента НЕ зависит от ограничений при низком ратио, низком аплоаде, требуемом ратио или требуемом аплоаде.


Начать новую тему Ответить на тему
Статистика раздачи
Размер: 3.96 ГБ | Добавлен: 17 янв 2015, 18:23 | Скачали: 225
Сидеров: 21  [0 байт/сек]    Личеров: 14  [0 байт/сек]
Пред. тема | След. тема 

Автор
Сообщение

СообщениеДобавлено: 17 янв 2015, 18:23 

Название: Человек тьмы III
Оригинальное название: Darkman III: Die Darkman Die
Год выхода: 1996
Жанр: ужасы, фантастика, боевик, триллер, криминал
Режиссер: Брэдфорд Мэй
В ролях: Джефф Фэйи, Арнольд Вослу, Дарлэнн Флюгел, Роксанн Доусон, Найджел Беннетт, Алисия Панетта, Ронн Саросьяк, Питер Грэхэм, Шон Дойл, Вьеслав Кристиан

Описание: Когда-то давно доктор Уэстлэйк был обезображен гангстерами и превратился в неуловимого мастера маскировки, отважного мстителя — «Человека Тьмы». В этот раз Человеку Тьмы снова противостоит опасный и сильный противник — безжалостный преступник Питер Рукер.

Коварный злодей хочет найти таинственный источник сверхъестественной силы героя и устраивает ему ловушку. Оказавшись в западне, Человек Тьмы вступает в свой последний и самый отчаянный бой с бандой Рукера, бой кровавый и жестокий…



Страна: США
Продолжительность: 01:26:56
Перевод #1: Профессиональный (Многоголосый, Закадровый)
Перевод #2: Английский (Оригинал)


Формат: MKV
Качество: BDRip 720p (Источник: Darkman.Trilogy.1990-1996.720p.BluRay.x264-PublicHD)
Видео: 1280x720 (16:9), 23,976 fps, 5693 kbps, 0.258 bit/pixel
Аудио #1: AC-3, 2 ch, 192 kbps (Многоголосый)
Аудио #2: AC-3, 2 ch, 640 kbps (Английский Оригинал)
Субтитры: нет

01 - видео не пережималось такое как в исходнике
02 - Английский 2.0 (DTS) пожат в (AC-3)
03 - перетяжка и синхронизация русской дорожки с BDRip 720p iDRaser2013

General
Unique ID : 227699954595413846499481221461938837314 (0xAB4D6A84D09303AFA628EBD02AD49742)
Complete name : Darkman.III.1996.720p.P.mkv
Format : Matroska
Format version : Version 2
File size : 3.96 GiB
Duration : 1h 26mn
Overall bit rate : 6 521 Kbps
Movie name : Человек Тьмы III / Darkman III: Die Darkman Die (1996) (720p)
Encoded date : UTC 2014-12-07 11:44:10
Writing application : mkvmerge v5.6.0 ('Kenya Kane') built on May 27 2012 16:44:04
Writing library : libebml v1.2.3 + libmatroska v1.3.0

Video
ID : 1
Format : AVC
Format/Info : Advanced Video Codec
Format profile : High@L3.1
Format settings, CABAC : Yes
Format settings, ReFrames : 5 frames
Codec ID : V_MPEG4/ISO/AVC
Duration : 1h 26mn
Bit rate : 5 693 Kbps
Width : 1 280 pixels
Height : 720 pixels
Display aspect ratio : 16:9
Frame rate mode : Constant
Frame rate : 23.976 fps
Color space : YUV
Chroma subsampling : 4:2:0
Bit depth : 8 bits
Scan type : Progressive
Bits/(Pixel*Frame) : 0.258
Stream size : 3.38 GiB (85%)
Title : Человек Тьмы III / Darkman III: Die Darkman Die (1996) (720p)
Writing library : x264 core 125 r2208 d9d2288
Encoding settings : cabac=1 / ref=5 / deblock=1:0:0 / analyse=0x3:0x133 / me=umh / subme=7 / psy=1 / psy_rd=1.00:0.00 / mixed_ref=1 / me_range=16 / chroma_me=1 / trellis=1 / 8x8dct=1 / cqm=0 / deadzone=21,11 / fast_pskip=0 / chroma_qp_offset=-2 / threads=6 / lookahead_threads=1 / sliced_threads=0 / nr=0 / decimate=1 / interlaced=0 / bluray_compat=0 / constrained_intra=0 / bframes=3 / b_pyramid=2 / b_adapt=2 / b_bias=0 / direct=3 / weightb=1 / open_gop=0 / weightp=2 / keyint=250 / keyint_min=23 / scenecut=40 / intra_refresh=0 / rc_lookahead=50 / rc=2pass / mbtree=1 / bitrate=5693 / ratetol=1.0 / qcomp=0.60 / qpmin=0 / qpmax=69 / qpstep=4 / cplxblur=20.0 / qblur=0.5 / ip_ratio=1.40 / aq=1:1.00
Language : English
Default : Yes
Forced : No

Audio #1
ID : 2
Format : AC-3
Format/Info : Audio Coding 3
Mode extension : CM (complete main)
Format settings, Endianness : Big
Codec ID : A_AC3
Duration : 1h 26mn
Bit rate mode : Constant
Bit rate : 192 Kbps
Channel(s) : 2 channels
Channel positions : Front: L R
Sampling rate : 48.0 KHz
Bit depth : 16 bits
Compression mode : Lossy
Stream size : 119 MiB (3%)
Title : Многоголосый 2.0
Language : Russian
Default : Yes
Forced : No

Audio #2
ID : 3
Format : AC-3
Format/Info : Audio Coding 3
Mode extension : CM (complete main)
Format settings, Endianness : Big
Codec ID : A_AC3
Duration : 1h 26mn
Bit rate mode : Constant
Bit rate : 640 Kbps
Channel(s) : 2 channels
Channel positions : Front: L R
Sampling rate : 48.0 KHz
Bit depth : 16 bits
Compression mode : Lossy
Stream size : 398 MiB (10%)
Title : Английский 2.0 (Оригинал)
Language : English
Default : No
Forced : No
загрузка...
Правила, инструкции, FAQ!!!
Торрент  Добавлен [17 янв 2015, 18:23] Скачать торрент
Скачать торрент
[ Размер 20.34 КБ / Просмотров 5 ]

Статус
Проверен 
 
Размер  3.96 ГБ
Приватный: Нет (DHT включён)
.torrent скачан  225
Как залить торрент? | Как скачать Torrent? | Как смотреть и слушать онлайн?  


     Отправить личное сообщение
   
Страница 1 из 1
Показать сообщения за:  Поле сортировки  
Начать новую тему Ответить на тему

   Похожие торренты   Автор   Ответы   Просмотры   Последнее сообщение 
В этой теме нет новых непрочитанных сообщений. Скачать торрент Проверен Человек тьмы 3 / Darkman 3: Die Darkman Die (1996) HDRip-AVC | P

в форуме Боевики, Размер: 1.46 ГБ, Здоровье: ???%

Гость

0
0|121

59
0

17 янв 2015, 18:21

Гость Перейти к последнему сообщению

В этой теме нет новых непрочитанных сообщений. Скачать торрент Константин: Повелитель тьмы / Constantine (2005) BDRip 720p | D

в форуме 720p | 1080p, Размер: 4.37 ГБ, Здоровье: 100%

Anonymous

0
183|28

15
1028

21 фев 2014, 10:31

Anonymous Перейти к последнему сообщению

В этой теме нет новых непрочитанных сообщений. Скачать торрент Проверен Ангел тьмы / Dark Angel (1990) BDRip 720p | P, P2, A, L1

в форуме 720p | 1080p, Размер: 7.88 ГБ, Здоровье: 100%

Anonymous

0
63|59

64
71

17 апр 2015, 16:23

Anonymous Перейти к последнему сообщению

В этой теме нет новых непрочитанных сообщений. Скачать торрент Тор 2: Царство тьмы / Thor: The Dark World (2013) BDRip 720p | Лицензия

в форуме 720p | 1080p, Размер: 2.9 ГБ, Здоровье: 0%

Anonymous

0
0|0

143
0

14 фев 2014, 17:15

Anonymous Перейти к последнему сообщению

В этой теме нет новых непрочитанных сообщений. Скачать торрент Тор 2: Царство тьмы / Thor: The Dark World (2013) BDRip 720p | Чистый звук

в форуме 720p | 1080p, Размер: 4.67 ГБ, Здоровье: 0%

Anonymous

0
0|0

38
0

06 фев 2014, 07:43

Anonymous Перейти к последнему сообщению



Сейчас этот форум просматривают: нет зарегистрированных пользователей и гости: 3


Вы не можете начинать темы
Вы не можете отвечать на сообщения
Вы не можете редактировать свои сообщения
Вы не можете удалять свои сообщения
Вы не можете добавлять вложения

Перейти:  

!ВНИМАНИЕ!
 Ресурс не предоставляет электронные версии произведений, а занимается лишь коллекционированием и каталогизацией ссылок, присылаемых и публикуемых на форуме нашими читателями. Если вы являетесь правообладателем какого-либо представленного материала и не желаете чтобы ссылка на него находилась в нашем каталоге, свяжитесь с нами и мы незамедлительно удалим её. Файлы для обмена на трекере предоставлены пользователями сайта, и администрация не несёт ответственности за их содержание. Просьба не заливать файлы, защищенные авторскими правами, а также файлы нелегального содержания!