На всех торрентах на трекере установлена скидка на скачивание в размере 100 процентов(а).
 Возможность скачивания торрента НЕ зависит от ограничений при низком ратио, низком аплоаде, требуемом ратио или требуемом аплоаде.


Начать новую тему Ответить на тему
Статистика раздачи
Размер: 7.4 ГБ | Добавлен: 17 янв 2015, 00:17 | Скачали: 10
Сидеров: 16  [0 байт/сек]    Личеров: 47  [0 байт/сек]
Пред. тема | След. тема 

Автор
Сообщение

СообщениеДобавлено: 17 янв 2015, 00:17 

Название: Синдром Альцгеймера
Оригинальное название: De zaak Alzheimer
Год выпуска: 2003
Жанр: Боевик, триллер, драма, криминал
Режиссер: Эрик Ван Лой
В ролях: Лорен Ван ден Брок, Дирк Руфтхуфт, Коэн Де Боу, Вернер Де Смедт,Хилде Де Бардемакер, Герт Ван Рампелберг, Ян Деклер, Патрик Декам, Жан Дик

О фильме:Наемный убийца Анджело Ледда отправляется из Марселя в Бельгию, где он должен выполнить два задания. В качестве первого задания он убивает высокопоставленного чиновника и закапывает тело в саду. Комиссар уголовной полиции в Управлении Антверпена Эрик Винке и будущий комиссар Фредди Верстайфт получают задание расследовать исчезновение чиновника, с помощью двух других сотрудников уголовной полиции. Фильм снят по детективному роману бельгийского писателя Джефа Герарца.



Страна: Бельгия, Нидерланды
Студия: MMG Film & TV Production, PVPictures, TROS Bridge Rights, TV1
Продолжительность: 01:58:14
Перевод: Любительский одноголосый


Кодек: x264
Видео: MPEG-4 AVC, 7000 Кбит/с, 1280x550, 25.000 кадр/с
Аудио #1: Русский (AC3, 6 ch, 448 Кбит/с) / Любительский одноголосый (©acolith)
Аудио #2: Голландский (DTS, 6 ch, 1509 Кбит/с)
Субтитры: Русские (femme), английские, голландские

Семпл

x264 [info]: frame I:1774 Avg QP:14.22 size:111753
x264 [info]: frame P:36322 Avg QP:16.59 size: 59237
x264 [info]: frame B:139247 Avg QP:19.12 size: 27694

===========================================================

Format : Matroska
Format version : Version 2
File size : 7.40 GiB
Duration : 1h 58mn
Overall bit rate : 8 954 Kbps
Encoded date : UTC 2015-01-16 16:19:28
Writing application : mkvmerge v5.5.0 ('Healer') built on Apr 6 2012 21:43:24
Writing library : libebml v1.2.3 + libmatroska v1.3.0

Video
ID : 1
Format : AVC
Format/Info : Advanced Video Codec
Format profile : High@L4.1
Format settings, CABAC : Yes
Format settings, ReFrames : 10 frames
Codec ID : V_MPEG4/ISO/AVC
Duration : 1h 58mn
Bit rate : 7 000 Kbps
Width : 1 280 pixels
Height : 550 pixels
Display aspect ratio : 2.35:1
Frame rate mode : Constant
Frame rate : 25.000 fps
Color space : YUV
Chroma subsampling : 4:2:0
Bit depth : 8 bits
Scan type : Progressive
Bits/(Pixel*Frame) : 0.398
Stream size : 5.63 GiB (76%)
Title : De Zaak Alzheimer 2003
Writing library : x264 core 133 r2334 a3ac64b
Encoding settings : cabac=1 / ref=10 / deblock=1:-3:-3 / analyse=0x3:0x133 / me=umh / subme=10 / psy=1 / psy_rd=1.10:0.00 / mixed_ref=1 / me_range=16 / chroma_me=1 / trellis=2 / 8x8dct=1 / cqm=0 / deadzone=21,11 / fast_pskip=0 / chroma_qp_offset=-2 / threads=12 / lookahead_threads=2 / sliced_threads=0 / nr=0 / decimate=0 / interlaced=0 / bluray_compat=0 / constrained_intra=0 / bframes=7 / b_pyramid=2 / b_adapt=2 / b_bias=0 / direct=3 / weightb=1 / open_gop=0 / weightp=2 / keyint=250 / keyint_min=25 / scenecut=40 / intra_refresh=0 / rc=2pass / mbtree=0 / bitrate=7000 / ratetol=1.0 / qcomp=0.60 / qpmin=0 / qpmax=69 / qpstep=4 / cplxblur=20.0 / qblur=0.5 / ip_ratio=1.40 / pb_ratio=1.30 / aq=1:0.65 / zones=171731,177343,b=0.4
Language : Dutch
Default : Yes
Forced : No
Color primaries : BT.709

Audio #1
ID : 2
Format : AC-3
Format/Info : Audio Coding 3
Mode extension : CM (complete main)
Format settings, Endianness : Big
Codec ID : A_AC3
Duration : 1h 58mn
Bit rate mode : Constant
Bit rate : 448 Kbps
Channel count : 6 channels
Channel positions : Front: L C R, Side: L R, LFE
Sampling rate : 48.0 KHz
Bit depth : 16 bits
Compression mode : Lossy
Stream size : 379 MiB (5%)
Title : Russian
Language : Russian
Default : Yes
Forced : No

Audio #2
ID : 3
Format : DTS
Format/Info : Digital Theater Systems
Mode : 16
Format settings, Endianness : Big
Codec ID : A_DTS
Duration : 1h 58mn
Bit rate mode : Constant
Bit rate : 1 509 Kbps
Channel count : 6 channels
Channel positions : Front: L C R, Side: L R, LFE
Sampling rate : 48.0 KHz
Bit depth : 24 bits
Compression mode : Lossy
Stream size : 1.25 GiB (17%)
Title : Dutch
Language : Dutch
Default : No
Forced : No

Text #1
ID : 4
Format : UTF-8
Codec ID : S_TEXT/UTF8
Codec ID/Info : UTF-8 Plain Text
Title : Dutch
Language : Dutch
Default : No
Forced : No

Text #2
ID : 5
Format : UTF-8
Codec ID : S_TEXT/UTF8
Codec ID/Info : UTF-8 Plain Text
Title : English
Language : English
Default : No
Forced : No

Text #3
ID : 6
Format : UTF-8
Codec ID : S_TEXT/UTF8
Codec ID/Info : UTF-8 Plain Text
Title : Russian
Language : Russian
Default : No
Forced : No


загрузка...
Правила, инструкции, FAQ!!!
Торрент  Добавлен [17 янв 2015, 00:17] Скачать торрент
Скачать торрент
[ Размер 19.18 КБ / Просмотров 5 ]

Статус
Проверен 
 
Размер  7.4 ГБ
Приватный: Нет (DHT включён)
.torrent скачан  10
Как залить торрент? | Как скачать Torrent? | Как смотреть и слушать онлайн?  


     Отправить личное сообщение
   
Страница 1 из 1
Показать сообщения за:  Поле сортировки  
Начать новую тему Ответить на тему

   Похожие торренты   Автор   Ответы   Просмотры   Последнее сообщение 
В этой теме нет новых непрочитанных сообщений. Скачать торрент Проверен Синдром Альцгеймера / De zaak Alzheimer (2003) HDRip

в форуме Боевики, Размер: 1.73 ГБ, Здоровье: 45%

Anonymous

0
21|46

49
7

17 янв 2015, 00:20

Anonymous Перейти к последнему сообщению

В этой теме нет новых непрочитанных сообщений. Скачать торрент Проверен Андреас Мориц | Нет болезни Альцгеймера! (2015) [FB2, RTF]

в форуме Нетрадиционная медицина, Размер: 10.62 МБ, Здоровье: 100%

Anonymous

0
32|3

34
2

30 янв 2016, 17:21

Anonymous Перейти к последнему сообщению

В этой теме нет новых непрочитанных сообщений. Скачать торрент Проверен Монстр / Monster (2003) BDRip [H.264/720p]

в форуме 720p | 1080p, Размер: 6.44 ГБ, Здоровье: 100%

Гость

0
38|8

89
18

03 апр 2015, 01:23

Гость Перейти к последнему сообщению

В этой теме нет новых непрочитанных сообщений. Скачать торрент Проверен Мечтатели / The Dreamers (2003) BDRip 720p

в форуме 720p | 1080p, Размер: 8.21 ГБ, Здоровье: 100%

Anonymous

0
8|1

42
242

10 авг 2014, 00:58

Anonymous Перейти к последнему сообщению

В этой теме нет новых непрочитанных сообщений. Скачать торрент Проверен Невезучие / Tais-toi! (2003) [720p] BDRip

в форуме 720p | 1080p, Размер: 4.37 ГБ, Здоровье: ???%

Гость

0
0|1

39
0

01 фев 2015, 23:32

Гость Перейти к последнему сообщению



Сейчас этот форум просматривают: нет зарегистрированных пользователей и гости: 3


Вы не можете начинать темы
Вы не можете отвечать на сообщения
Вы не можете редактировать свои сообщения
Вы не можете удалять свои сообщения
Вы не можете добавлять вложения

Перейти:  

!ВНИМАНИЕ!
 Ресурс не предоставляет электронные версии произведений, а занимается лишь коллекционированием и каталогизацией ссылок, присылаемых и публикуемых на форуме нашими читателями. Если вы являетесь правообладателем какого-либо представленного материала и не желаете чтобы ссылка на него находилась в нашем каталоге, свяжитесь с нами и мы незамедлительно удалим её. Файлы для обмена на трекере предоставлены пользователями сайта, и администрация не несёт ответственности за их содержание. Просьба не заливать файлы, защищенные авторскими правами, а также файлы нелегального содержания!