На всех торрентах на трекере установлена скидка на скачивание в размере 100 процентов(а).
 Возможность скачивания торрента НЕ зависит от ограничений при низком ратио, низком аплоаде, требуемом ратио или требуемом аплоаде.


Начать новую тему Ответить на тему
Статистика раздачи
Размер: 6.06 ГБ | Добавлен: 15 янв 2015, 19:38 | Скачали: 412
Сидеров: 184  [0 байт/сек]    Личеров: 31  [0 байт/сек]
Пред. тема | След. тема 

Автор
Сообщение

СообщениеДобавлено: 15 янв 2015, 19:38 

Русское название: Подальше от тебя
Оригинальное название: In Her Shoes
Год выпуска: 2005
Жанр: драма, мелодрама, комедия
Выпущено: США, Германия
Режиссер: Кёртис Хэнсон / Curtis Hanson
В ролях: Кэмерон Диаз , Тони Коллетт , Марк Фойерстин , Ширли МакЛейн , Ричард Берджи , Кэндис Аззара , Кен Ховард , Брук Смит , Джерри Эдлер , Франсин Бирс , Энсон Маунт , Джон Мастранджело ст.
Перевод: Дублированный

Сюжет фильма:
Безответственная и легкомысленная Мэгги Феллер поселяется у своей старшей сестры Роуз, которая работает адвокатом и придерживается во всем строгих правил. Неприятности начинаются с того, что Мэгги затаскивает к себе в постель бойфренда Роуз.

PG-13 - Детям до 13 лет просмотр не желателен
Режиссёр Кёртис Хэнсон лично встречался ещё до начала съёмок с Тони Коллетт и попросил её набрать побольше веса для роли в фильме. Актриса успешно справилась с поставленной задачей, прибавив около десяти килограммов, а затем потеряв их во время съёмок фильма, что также соответствовало происходящему с её персонажем.
Автор книги, по которой поставлен фильм, Дженнифер Уайнер и её литературный агент появляются на экране в одной из сцен, проходя мимо героини Тони Коллетт и её подруги на итальянском рынке. Также в фильме присутствуют сестра и бабушка писательницы.
Женщина, изображённая на фотографии как мать Роуз и Мэгги, это известная модель Ивана Миличевич.
Хотя Тони Коллетт играет старшую сестру героини Кэмерон Диаз в реальности именно Кэмерон Диаз старше её на два месяца.
Для начальных титров ещё за год до премьеры была разработана специальная анимационная вставка, но в самый последний момент продюсеры решили отказаться от её использования, решив, что с таким началом зрители могут посчитать фильм слишком несерьёзным.


Качество: BDRip 720p
Формат: AVC (библиотека кодирования x.264)
Контейнер (Расширение): MKV
Видео: 1280x544 (2.35:1), 5625 Кбит/сек, 23,976 кадр/сек, 0,337 Бит/[Пиксели*Кадры]
Аудио №1: русский / AC3 / 5.1 / 48 kHz / 448 kbps / |Дублированный|
Аудио №2: английский / AC3 / 5.1 / 48 kHz / 448 kbps /
Субтитры: русские (Russian)
Навигация по главам(Чаптеры): есть
Продолжительность: 02:10:23
Автор рипа:
Format : Matroska
Format version : Version 2
File size : 6.06 GiB
Duration : 2h 10mn
Overall bit rate : 6 654 Kbps
Movie name : Podal'she ot tebja.(2005).BDRip.720p.[denis100]
Encoded date : UTC 2015-01-10 10:54:40
Writing application : mkvmerge v5.8.0 ('No Sleep / Pillow') built on Sep 2 2012 15:37:04
Writing library : libebml v1.2.3 + libmatroska v1.3.0

Video
ID : 1
Format : AVC
Format/Info : Advanced Video Codec
Format profile : High@L4.1
Format settings, CABAC : Yes
Format settings, ReFrames : 5 frames
Codec ID : V_MPEG4/ISO/AVC
Duration : 2h 10mn
Bit rate : 5 626 Kbps
Width : 1 280 pixels
Height : 544 pixels
Display aspect ratio : 2.35:1
Frame rate : 23.976 fps
Color space : YUV
Chroma subsampling : 4:2:0
Bit depth : 8 bits
Scan type : Progressive
Bits/(Pixel*Frame) : 0.337
Stream size : 5.12 GiB (85%)
Writing library : x264 core 142 r2491 24e4fed
Encoding settings : cabac=1 / ref=5 / deblock=1:-3:-3 / analyse=0x3:0x133 / me=umh / subme=11 / psy=1 / psy_rd=1.00:0.10 / mixed_ref=1 / me_range=48 / chroma_me=1 / trellis=2 / 8x8dct=1 / cqm=0 / deadzone=21,11 / fast_pskip=0 / chroma_qp_offset=-3 / threads=6 / lookahead_threads=1 / sliced_threads=0 / nr=0 / decimate=1 / interlaced=0 / bluray_compat=0 / constrained_intra=0 / bframes=8 / b_pyramid=2 / b_adapt=2 / b_bias=0 / direct=3 / weightb=1 / open_gop=0 / weightp=2 / keyint=240 / keyint_min=23 / scenecut=40 / intra_refresh=0 / rc=crf / mbtree=0 / crf=17.5 / qcomp=0.60 / qpmin=0 / qpmax=69 / qpstep=4 / ip_ratio=1.40 / pb_ratio=1.30 / aq=2:0.90
Language : English
Default : Yes
Forced : No

Audio #1
ID : 2
Format : AC-3
Format/Info : Audio Coding 3
Mode extension : CM (complete main)
Codec ID : A_AC3
Duration : 2h 10mn
Bit rate mode : Constant
Bit rate : 448 Kbps
Channel(s) : 6 channels
Channel positions : Front: L C R, Side: L R, LFE
Sampling rate : 48.0 KHz
Bit depth : 16 bits
Compression mode : Lossy
Stream size : 418 MiB (7%)
Title : Дублированный
Language : Russian
Default : Yes
Forced : No

Audio #2
ID : 3
Format : AC-3
Format/Info : Audio Coding 3
Mode extension : CM (complete main)
Codec ID : A_AC3
Duration : 2h 10mn
Bit rate mode : Constant
Bit rate : 448 Kbps
Channel(s) : 6 channels
Channel positions : Front: L C R, Side: L R, LFE
Sampling rate : 48.0 KHz
Bit depth : 16 bits
Compression mode : Lossy
Stream size : 418 MiB (7%)
Title : English
Language : English
Default : No
Forced : No

Text
ID : 4
Format : UTF-8
Codec ID : S_TEXT/UTF8
Codec ID/Info : UTF-8 Plain Text
Title : Russian
Language : Russian
Default : No
Forced : No

Menu
00:00:00.000 : en:00:00:00.000
00:02:20.140 : en:00:02:20.140
00:08:57.162 : en:00:08:57.162
00:12:06.726 : en:00:12:06.726
00:15:21.671 : en:00:15:21.671
00:21:31.790 : en:00:21:31.790
00:25:35.534 : en:00:25:35.534
00:31:31.473 : en:00:31:31.473
00:36:11.002 : en:00:36:11.002
00:41:19.769 : en:00:41:19.769
00:46:25.157 : en:00:46:25.157
00:49:21.542 : en:00:49:21.542
00:52:39.031 : en:00:52:39.031
00:59:17.721 : en:00:59:17.721
01:02:58.817 : en:01:02:58.817
01:08:28.229 : en:01:08:28.229
01:13:10.720 : en:01:13:10.720
01:19:27.179 : en:01:19:27.179
01:24:13.215 : en:01:24:13.215
01:27:29.828 : en:01:27:29.828
01:31:16.137 : en:01:31:16.137
01:37:02.233 : en:01:37:02.233
01:41:42.096 : en:01:41:42.096
01:51:29.850 : en:01:51:29.850
01:52:59.648 : en:01:52:59.648
01:57:36.091 : en:01:57:36.091
02:03:15.555 : en:02:03:15.555
02:06:15.067 : en:02:06:15.067
x264 [info]: frame I:1483 Avg QP:15.89 size:115439
x264 [info]: frame P:35089 Avg QP:17.35 size: 50557
x264 [info]: frame B:151012 Avg QP:19.21 size: 24395
[center]
загрузка...
Правила, инструкции, FAQ!!!
Торрент  Добавлен [15 янв 2015, 19:38] Скачать торрент
Скачать торрент
[ Размер 30.87 КБ / Просмотров 11 ]

Статус
Проверен 
 
Размер  6.06 ГБ
Приватный: Нет (DHT включён)
.torrent скачан  412
Как залить торрент? | Как скачать Torrent? | Как смотреть и слушать онлайн?  


     Отправить личное сообщение
   
Страница 1 из 1
Показать сообщения за:  Поле сортировки  
Начать новую тему Ответить на тему

   Похожие торренты   Автор   Ответы   Просмотры   Последнее сообщение 
В этой теме нет новых непрочитанных сообщений. Скачать торрент Проверен Подальше от тебя / In Her Shoes (2005) BDRip 1080p | D

в форуме 720p | 1080p, Размер: 15.06 ГБ, Здоровье: 100%

Гость

0
48|14

42
98

15 янв 2015, 19:42

Гость Перейти к последнему сообщению

В этой теме нет новых непрочитанных сообщений. Скачать торрент Подальше от тебя / In Her Shoes (Кёртис Хэнсон / Curtis Hanson) [2005 г., комедия, мелодрама, драма, HDTVRip] Dub

в форуме Комедии, Размер: 748.85 МБ, Здоровье: 100%

Anonymous

0
56|19

37
0

10 фев 2014, 13:05

Anonymous Перейти к последнему сообщению

В этой теме нет новых непрочитанных сообщений. Скачать торрент Проверен The Shoes - Let The Shoes shine in (1970) [FLAC|Lossless]<Ciassic Rock>

в форуме Рок, Панк, Метал, Альтернатива, Размер: 438.78 МБ, Здоровье: 0%

Anonymous

0
0|0

33
1

29 ноя 2014, 17:01

Anonymous Перейти к последнему сообщению

В этой теме нет новых непрочитанных сообщений. Скачать торрент Проверен (Classic Rock) The Shoes - Let The Shoes Shine In - 1970, MP3, 320 kbps

в форуме Classic Rock & Hard Rock, Размер: 99.99 МБ, Здоровье: 0%

Anonymous

0
0|0

0
0

14 ноя 2016, 18:30

Anonymous Перейти к последнему сообщению

В этой теме нет новых непрочитанных сообщений. Скачать торрент Проверен The Shoes - Drifted [2015, Indie rock / Electronic, HDTVRip 720p]

в форуме Концерты (HD-Video), Размер: 199.86 МБ, Здоровье: 0%

Anonymous

0
0|0

0
0

23 окт 2016, 10:36

Anonymous Перейти к последнему сообщению



Сейчас этот форум просматривают: нет зарегистрированных пользователей и гости: 2


Вы не можете начинать темы
Вы не можете отвечать на сообщения
Вы не можете редактировать свои сообщения
Вы не можете удалять свои сообщения
Вы не можете добавлять вложения

Перейти:  

!ВНИМАНИЕ!
 Ресурс не предоставляет электронные версии произведений, а занимается лишь коллекционированием и каталогизацией ссылок, присылаемых и публикуемых на форуме нашими читателями. Если вы являетесь правообладателем какого-либо представленного материала и не желаете чтобы ссылка на него находилась в нашем каталоге, свяжитесь с нами и мы незамедлительно удалим её. Файлы для обмена на трекере предоставлены пользователями сайта, и администрация не несёт ответственности за их содержание. Просьба не заливать файлы, защищенные авторскими правами, а также файлы нелегального содержания!