На всех торрентах на трекере установлена скидка на скачивание в размере 100 процентов(а).
 Возможность скачивания торрента НЕ зависит от ограничений при низком ратио, низком аплоаде, требуемом ратио или требуемом аплоаде.


Начать новую тему Ответить на тему
Статистика раздачи
Размер: 4.1 ГБ | Добавлен: 14 янв 2015, 23:53 | Скачали: 0
Сидеров: 2  [0 байт/сек]    Личеров: 1  [0 байт/сек]
Пред. тема | След. тема 

Автор
Сообщение

СообщениеДобавлено: 14 янв 2015, 23:53 

Производство: Корея Южная
Жанр: Драма

Режиссер: Сон Бо Шим
Актеры: Юн Сок Ким, Ючхон Пак, Е Ри Хан, Хи Чжун Ли, Сон Гын Мун, Сан Хо Ким, Сын Мок Ю, Ин Ги Чон, Гён Сук Чо, Чжу Бон Ги

Описание фильма:
Рыболовное судно «Jeonjiho» выходит в море для ловли рыбы. Но, как бы они ни надеялись на хороший улов, чуда не произошло. Чтобы хоть немного заработать, команда решает провезти на своем судне контрабандой безбилетников. Эти безбилетники — этнические корейцы, живущие в Китае и мечтающие перебраться в Южную Корею. На пути в Корею судно попадает в шторм, да и по пятам за ними следует южнокорейская Морская полиция. А в это время безбилетники в трюме «Jeonjiho» задыхаются до смерти. Среди этого хаоса самый молодой член экипажа Дон Сик изо всех сил пытается защитить молодую эмигрантку, в которую влюбился…

Перевод: Любительский двухголосый (DeadSno & den904)



Продолжительность: 01:51:01
Качество видео: HDTVRip (720p)

Видеокодек: MPEG-4 AVC
Битрейт видео: ~14866 Кбит/с
Размер кадра: 1280х720
Аудио:
1. AC3, 2 ch, 192 Кбит/с - русский
2. MP3, 2 ch, 128 Кбит/с - корейский

Общее
Уникальный идентификатор : 234297918327502399992486341600196929643 (0xB044233F177AAF45B07275ABFC1BA86B)
Полное имя : C:\NNM\Морской туман\Morskoj tuman 2014 HDTVRip 720p.mkv
Формат : Matroska
Версия формата : Version 4 / Version 2
Размер файла : 4,10 Гбайт
Продолжительность : 1 ч. 51 м.
Общий поток : 5292 Кбит/сек
Программа кодирования : mkvmerge v7.5.0 ('Glass Culture') 64bit built on Jan 4 2015 16:48:44
Библиотека кодирования : libebml v1.3.1 + libmatroska v1.4.2

Видео
Идентификатор : 1
Формат : AVC
Формат/Информация : Advanced Video Codec
Профиль формата :
Параметр CABAC формата : Нет
Параметр ReFrames формата : 1 кадр
Идентификатор кодека : V_MPEG4/ISO/AVC
Продолжительность : 1 ч. 51 м.
Битрейт : 4866 Кбит/сек
Ширина : 1280 пикселей
Высота : 720 пикселей
Соотношение сторон : 16:9
Режим частоты кадров : Переменный
Частота кадров : 24,000 кадра/сек
Цветовое пространство : YUV
Субдискретизация насыщенности : 4:2:0
Битовая глубина : 8 бит
Тип развёртки : Прогрессивная
Бит/(Пиксели*Кадры) : 0.220
Размер потока : 3,77 Гбайт (92%)
Default : Да
Forced : Нет

Аудио #1
Идентификатор : 2
Формат : AC-3
Формат/Информация : Audio Coding 3
Расширение режима : CM (complete main)
Идентификатор кодека : A_AC3
Продолжительность : 1 ч. 51 м.
Вид битрейта : Постоянный
Битрейт : 192 Кбит/сек
Каналы : 2 канала
Расположение каналов : Front: L R
Частота : 48,0 КГц
Битовая глубина : 16 бит
Метод сжатия : С потерями
Размер потока : 152 Мбайт (4%)
Язык : Russian
Default : Да
Forced : Да

Аудио #2
Идентификатор : 3
Формат : MPEG Audio
Версия формата : Version 1
Профиль формата : Layer 3
Режим : Joint stereo
Расширение режима : MS Stereo
Идентификатор кодека : A_MPEG/L3
Идентификатор кодека/Подсказка : MP3
Продолжительность : 1 ч. 51 м.
Вид битрейта : Постоянный
Битрейт : 128 Кбит/сек
Каналы : 2 канала
Частота : 44,1 КГц
Метод сжатия : С потерями
Размер потока : 102 Мбайт (2%)
Библиотека кодирования : LAME3.98.2
Язык : Korean
Default : Нет
Forced : Нет

Текст
Идентификатор : 4
Формат : UTF-8
Идентификатор кодека : S_TEXT/UTF8
Идентификатор кодека/Информация : UTF-8 Plain Text
Язык : Russian
Default : Да
Forced : Да
Скриншоты:
загрузка...
Правила, инструкции, FAQ!!!
Торрент  Добавлен [14 янв 2015, 23:53] Скачать торрент
Скачать торрент
[ Размер 21.22 КБ / Просмотров 3 ]

Статус
Проверен 
 
Размер  4.1 ГБ
Приватный: Нет (DHT включён)
.torrent скачан  0
Как залить торрент? | Как скачать Torrent? | Как смотреть и слушать онлайн?  


     Отправить личное сообщение
   
Страница 1 из 1
Показать сообщения за:  Поле сортировки  
Начать новую тему Ответить на тему

   Похожие торренты   Автор   Ответы   Просмотры   Последнее сообщение 
В этой теме нет новых непрочитанных сообщений. Скачать торрент Проверен МакSим - Полная дискография и видеография (2006-2015) FLAC, MP3, HDTVRip, HDTVRip 720p, HDTVRip 1080p

в форуме Дискографии (Отечественные), Размер: 24.2 ГБ, Здоровье: 100%

Гость

0
273|150

300
23

20 дек 2015, 12:22

Гость Перейти к последнему сообщению

В этой теме нет новых непрочитанных сообщений. Скачать торрент Проверен the GazettE - Kishidan Banpaku 2014 [2014, J-Rock, HDTVRip 720p]

в форуме Концерты (HD-Video), Размер: 563 МБ, Здоровье: 0%

Anonymous

0
0|0

0
0

23 окт 2016, 10:38

Anonymous Перейти к последнему сообщению

В этой теме нет новых непрочитанных сообщений. Скачать торрент Проверен Lollapalooza Brasil 2014 - Highlights [2014, Pop/Rock, HDTVRip 720p]

в форуме Концерты (HD-Video), Размер: 4.4 ГБ, Здоровье: 100%

Anonymous

0
1|0

45
0

26 апр 2015, 22:13

Anonymous Перейти к последнему сообщению

В этой теме нет новых непрочитанных сообщений. Скачать торрент Проверен Queen + Adam Lambert - Helene Fischer Show 2014 [2014, Rock, HDTVRip 720p]

в форуме Концерты (HD-Video), Размер: 239.81 МБ, Здоровье: 100%

Anonymous

0
2|1

2
0

23 окт 2016, 14:24

Anonymous Перейти к последнему сообщению

В этой теме нет новых непрочитанных сообщений. Скачать торрент Проверен Metallica - Live at Glastonbury 2014 (2014) HDTVRip-AVC 720p | 50 fps

в форуме Концерты (HD-Video), Размер: 3.16 ГБ, Здоровье: 100%

Anonymous

0
25|1

50
14

03 авг 2014, 21:26

Anonymous Перейти к последнему сообщению



Сейчас этот форум просматривают: нет зарегистрированных пользователей и гости: 1


Вы не можете начинать темы
Вы не можете отвечать на сообщения
Вы не можете редактировать свои сообщения
Вы не можете удалять свои сообщения
Вы не можете добавлять вложения

Перейти:  

!ВНИМАНИЕ!
 Ресурс не предоставляет электронные версии произведений, а занимается лишь коллекционированием и каталогизацией ссылок, присылаемых и публикуемых на форуме нашими читателями. Если вы являетесь правообладателем какого-либо представленного материала и не желаете чтобы ссылка на него находилась в нашем каталоге, свяжитесь с нами и мы незамедлительно удалим её. Файлы для обмена на трекере предоставлены пользователями сайта, и администрация не несёт ответственности за их содержание. Просьба не заливать файлы, защищенные авторскими правами, а также файлы нелегального содержания!