На всех торрентах на трекере установлена скидка на скачивание в размере 100 процентов(а).
 Возможность скачивания торрента НЕ зависит от ограничений при низком ратио, низком аплоаде, требуемом ратио или требуемом аплоаде.


Начать новую тему Ответить на тему
Статистика раздачи
Размер: 11.31 ГБ | Добавлен: 14 янв 2015, 23:47 | Скачали: 0
Сидеров: 187  [0 байт/сек]    Личеров: 99  [0 байт/сек]
Пред. тема | След. тема 

Автор
Сообщение

СообщениеДобавлено: 14 янв 2015, 23:47 

Год выпуска: 2014
Производство: США
Жанр: Драма

Режиссер: Дэвид Добкин
Продюсер: Дэвид Добкин, Сьюзан Дауни, Дэвид Гамбино
Актеры: Роберт Дауни мл., Роберт Дювалл, Вера Фармига, Билли Боб Торнтон, Винсент Д’Онофрио, Джереми Стронг, Дэкс Шепард, Лейтон Мистер, Кен Ховард, Эмма Трамбле

Описание фильма:
В центре истории — успешный адвокат, который приезжает в родной город на похороны матери и узнаёт, что его отца, городского судью, подозревают в убийстве. Герой решает задержаться, чтобы выяснить правду, и постепенно лучше узнаёт родственников, с которыми давно вообще никак не общался.

Перевод: Дублированный (iTunes Russia)
Субтитры: Вшитые отключаемые
Язык субтитров: Русский (форс., полные), украинский, английский

Дата мировой премьеры: 4 сентября 2014
Дата российской премьеры: 16 октября 2014, «Каро-Премьер»
Дата выхода DVD релиза: 29 января 2015, «CP Дистрибуция»
Продолжительность: 02:21:31
Качество видео: BDRip (профиль LQ)

Видеокодек: MPEG-4 AVC/H.264
Битрейт видео: ~9546 Кбит/с
Размер кадра: 1920x800
Аудио:
1. Русский (AC3, 6 ch, 384 Кбит/с)
2. Английский (DTS, 6 ch, 1509 Кбит/с)
Общее
Полное имя :\Судья_The.Judge.2014.BDRip.1080p.mkv
Формат : Matroska
Версия формата : Version 4 / Version 2
Размер файла : 11,3 Гбайт
Продолжительность : 2 ч. 21 м.
Общий поток : 11,4 Мбит/сек
Название фильма : Судья_The.Judge.2014.BDRip.1080p
Дата кодирования : UTC 2010-02-22 21:41:31
Программа кодирования : mkvmerge v5.8.0 ('No Sleep / Pillow') built on Nov 13 2012 19:43:22
Библиотека кодирования : libebml v1.3.0 + libmatroska v1.4.0

Видео
Идентификатор : 1
Формат : AVC
Формат/Информация : Advanced Video Codec
Профиль формата :
Параметр CABAC формата : Да
Параметр ReFrames формата : 5 кадров
Идентификатор кодека : V_MPEG4/ISO/AVC
Продолжительность : 2 ч. 21 м.
Битрейт : 9546 Кбит/сек
Ширина : 1920 пикселей
Высота : 800 пикселей
Соотношение сторон : 2,40:1
Режим частоты кадров : Постоянный
Частота кадров : 23,976 кадра/сек
Цветовое пространство : YUV
Субдискретизация насыщенности : 4:2:0
Битовая глубина : 8 бит
Тип развёртки : Прогрессивная
Бит/(Пиксели*Кадры) : 0.259
Размер потока : 9,21 Гбайт (81%)
Заголовок : Судья_The.Judge.2014.BDRip.1080p
Библиотека кодирования : x264 core 144 r2525 40bb568
Настройки программы : cabac=1 / ref=5 / deblock=1:0:0 / analyse=0x3:0x133 / me=umh / subme=7 / psy=1 / psy_rd=1.00:0.00 / mixed_ref=1 / me_range=16 / chroma_me=1 / trellis=1 / 8x8dct=1 / cqm=0 / deadzone=21,11 / fast_pskip=0 / chroma_qp_offset=-2 / threads=60 / lookahead_threads=6 / sliced_threads=0 / nr=0 / decimate=1 / interlaced=0 / bluray_compat=0 / constrained_intra=0 / bframes=3 / b_pyramid=2 / b_adapt=1 / b_bias=0 / direct=1 / weightb=1 / open_gop=0 / weightp=2 / keyint=250 / keyint_min=23 / scenecut=40 / intra_refresh=0 / rc_lookahead=40 / rc=2pass / mbtree=1 / bitrate=9546 / ratetol=1.0 / qcomp=0.60 / qpmin=0 / qpmax=69 / qpstep=4 / cplxblur=20.0 / qblur=0.5 / ip_ratio=1.40 / aq=1:1.00
Язык : English
Default : Да
Forced : Нет

Аудио #1
Идентификатор : 2
Формат : AC-3
Формат/Информация : Audio Coding 3
Расширение режима : CM (complete main)
Параметр Endianness формата : Big
Идентификатор кодека : A_AC3
Продолжительность : 2 ч. 21 м.
Вид битрейта : Постоянный
Битрейт : 384 Кбит/сек
Каналы : 6 каналов
Расположение каналов : Front: L C R, Side: L R, LFE
Частота : 48,0 КГц
Битовая глубина : 16 бит
Метод сжатия : С потерями
Размер потока : 389 Мбайт (3%)
Заголовок : Дублированный (iTunes Russia)
Язык : Russian
Default : Нет
Forced : Нет

Аудио #2
Идентификатор : 3
Формат : DTS
Формат/Информация : Digital Theater Systems
Режим : 16
Параметр Endianness формата : Big
Идентификатор кодека : A_DTS
Продолжительность : 2 ч. 21 м.
Вид битрейта : Постоянный
Битрейт : 1509 Кбит/сек
Каналы : 6 каналов
Расположение каналов : Front: L C R, Side: L R, LFE
Частота : 48,0 КГц
Битовая глубина : 24 бит
Метод сжатия : С потерями
Размер потока : 1,49 Гбайт (13%)
Заголовок : Оригинал
Язык : English
Default : Нет
Forced : Нет

Текст #1
Идентификатор : 4
Формат : UTF-8
Идентификатор кодека : S_TEXT/UTF8
Идентификатор кодека/Информация : UTF-8 Plain Text
Заголовок : Форс.
Язык : Russian
Default : Да
Forced : Нет

Текст #2
Идентификатор : 5
Формат : UTF-8
Идентификатор кодека : S_TEXT/UTF8
Идентификатор кодека/Информация : UTF-8 Plain Text
Заголовок : Полные
Язык : Russian
Default : Нет
Forced : Нет

Текст #3
Идентификатор : 6
Формат : UTF-8
Идентификатор кодека : S_TEXT/UTF8
Идентификатор кодека/Информация : UTF-8 Plain Text
Язык : Ukrainian
Default : Нет
Forced : Нет

Текст #4
Идентификатор : 7
Формат : UTF-8
Идентификатор кодека : S_TEXT/UTF8
Идентификатор кодека/Информация : UTF-8 Plain Text
Заголовок : Оригинал
Язык : English
Default : Нет
Forced : Нет

Меню
00:00:00.000 : en:00:00:00.000
00:11:59.218 : en:00:11:59.218
00:20:47.121 : en:00:20:47.121
00:31:22.547 : en:00:31:22.547
00:41:06.381 : en:00:41:06.381
00:50:42.623 : en:00:50:42.623
00:59:44.498 : en:00:59:44.498
01:09:25.453 : en:01:09:25.453
01:20:00.754 : en:01:20:00.754
01:28:33.767 : en:01:28:33.767
01:40:18.971 : en:01:40:18.971
01:51:38.942 : en:01:51:38.942
02:01:30.325 : en:02:01:30.325
02:10:55.681 : en:02:10:55.681
02:14:45.077 : en:02:14:45.077
Нигде в Америке съемочной группе не удалось найти зал суда, который можно было бы занять на три недели для работы над фильмом, поэтому декорации пришлось строить на огромном пустом складе в городе Норвуд, штат Массачусетс, США.
Джек Николсон и Томми Ли Джонс рассматривались на роль, которая в итоге досталась Роберту Дюваллу.
Одной из основных претенденток на роль, которая досталась Вере Фармиге, была Элизабет Бэнкс.
Януш Камински практически весь фильм снял на пленку, отказавшись от «цифры» в пользу классической картинки, полной света и теплых цветов.

Ошибки в фильме

В фильме на всех автомобилях из Индианы регистрационный номер расположен на переднем бампере. На самом деле в штате Индиана такое расположение номеров не используется.
Когда Хэнк находится в закусочной, перед тем как отправиться на похороны своей матери, у него видна щетина над верхней губой, но спустя несколько минут на кладбище он уже чисто выбрит.
В сцене, где мать Марка Блэкуэлла плюет на стекло автомобиля, когда камера показывает изнутри машины, плевок виден на стекле. Затем, когда камера показывает снаружи отъезжающий автомобиль, то стекло абсолютно чистое. А в следующем кадре из машины он снова появляется на стекле.
Скриншоты:

загрузка...
Правила, инструкции, FAQ!!!
Торрент  Добавлен [14 янв 2015, 23:47] Скачать торрент
Скачать торрент
[ Размер 57.22 КБ / Просмотров 3 ]

Статус
Проверен 
 
Размер  11.31 ГБ
Приватный: Нет (DHT включён)
.torrent скачан  0
Как залить торрент? | Как скачать Torrent? | Как смотреть и слушать онлайн?  


     Отправить личное сообщение
   
Страница 1 из 1
Показать сообщения за:  Поле сортировки  
Начать новую тему Ответить на тему

   Похожие торренты   Автор   Ответы   Просмотры   Последнее сообщение 
В этой теме нет новых непрочитанных сообщений. Скачать торрент Проверен Судья Дредд / Judge Dredd (1995) BDRip

в форуме Фантастика, Фэнтези, Размер: 2.18 ГБ, Здоровье: 0%

Anonymous

0
0|0

85
0

19 сен 2014, 08:00

Anonymous Перейти к последнему сообщению

В этой теме нет новых непрочитанных сообщений. Скачать торрент Проверен Судья / The Judge (2014) WEB-DL 720p | iTunes

в форуме 720p | 1080p, Размер: 4.44 ГБ, Здоровье: 100%

Гость

0
5736|2051

52
10832

30 дек 2014, 21:57

Гость Перейти к последнему сообщению

В этой теме нет новых непрочитанных сообщений. Скачать торрент Проверен Судья / The Judge (2014) WEB-DLRip | iTunes

в форуме Драмы, Мелодрамы, Размер: 1.45 ГБ, Здоровье: 100%

Гость

0
7|0

54
0

30 дек 2014, 22:01

Гость Перейти к последнему сообщению

В этой теме нет новых непрочитанных сообщений. Скачать торрент Проверен (Neoclassical/Power Metal) Area51 - Judge The Joker - 2014, MP3, 320 kbps

в форуме Heavy, Power, Progressive (Metal), Размер: 137.8 МБ, Здоровье: 0%

Anonymous

0
0|0

2
0

09 окт 2016, 09:45

Anonymous Перейти к последнему сообщению

В этой теме нет новых непрочитанных сообщений. Скачать торрент Судья [01-04 из 04] (2014) SATRip

в форуме Отечественные сериалы, Размер: 2.34 ГБ, Здоровье: 100%

Anonymous

0
250|8

36
1061

16 фев 2014, 19:13

Anonymous Перейти к последнему сообщению



Сейчас этот форум просматривают: нет зарегистрированных пользователей и гости: 1


Вы не можете начинать темы
Вы не можете отвечать на сообщения
Вы не можете редактировать свои сообщения
Вы не можете удалять свои сообщения
Вы не можете добавлять вложения

Перейти:  

!ВНИМАНИЕ!
 Ресурс не предоставляет электронные версии произведений, а занимается лишь коллекционированием и каталогизацией ссылок, присылаемых и публикуемых на форуме нашими читателями. Если вы являетесь правообладателем какого-либо представленного материала и не желаете чтобы ссылка на него находилась в нашем каталоге, свяжитесь с нами и мы незамедлительно удалим её. Файлы для обмена на трекере предоставлены пользователями сайта, и администрация не несёт ответственности за их содержание. Просьба не заливать файлы, защищенные авторскими правами, а также файлы нелегального содержания!