На всех торрентах на трекере установлена скидка на скачивание в размере 100 процентов(а).
 Возможность скачивания торрента НЕ зависит от ограничений при низком ратио, низком аплоаде, требуемом ратио или требуемом аплоаде.


Начать новую тему Ответить на тему
Статистика раздачи
Размер: 9.8 ГБ | Добавлен: 10 янв 2015, 22:13 | Скачали: 27
Сидеров: 8  [0 байт/сек]    Личеров: 2  [0 байт/сек]
Пред. тема | След. тема 

Автор
Сообщение

СообщениеДобавлено: 10 янв 2015, 22:13 

Название: Симулянт
Оригинальное название: The Ringer
Год выхода: 2005
Жанр: Комедия, спорт
Режиссер: Бэрри В. Блауштейн
В ролях: Джонни Ноксвил, Брайан Кокс, Кэтрин Хайгл, Джед Риис, Билл Чотт, Эдвард Барбанелл, Леонард Эрл Хауз, Джеффри Аренд, Джон Тейлор, Луис Авалос, Леонард Флауэрс, Зен Геснер, Стив Леви, Алькидес Диас, Майк Черроне, Терри Фанк

О фильме:
Дядя и его племянник решили заработать на Олимпийских играх для инвалидов, чтобы решить накопившиеся финансовые проблемы. Племянник бросает вызов действующему чемпиону, страдающему умственными отклонениями…
За звук СПАСИБО - IVH, работать со звуком не пришлось!
К сожалению, в дорожке 1-го канала по каким-то причинам отсутствовал фрагмент с 00:02:00 по 00:03:09. Он заменен фрагментом из второй дорожки.
Рип - Викс
Рейтинг PG-13 - Детям до 13 лет просмотр не желателен
Общее
Уникальный идентификатор : 186356878374649756330550848403869511597 (0x8C33077C4CF4DCA393A2B5F73E23AFAD)
Полное имя : H:ФильмСделать русский переводГотовые сделаные релизыThe.Ringer.2005.x264.BDRip.1080p-MediaClub.mkv
Формат : Matroska
Версия формата : Version 2
Размер файла : 9,80 Гбайт
Продолжительность : 1 ч. 34 м.
Общий поток : 14,9 Мбит/сек
Название фильма : The Ringer 2005 BDRip 1080p =MediaClub= [Викс]
Дата кодирования : UTC 2015-01-10 15:13:59
Программа кодирования : mkvmerge v5.8.0 ('No Sleep / Pillow') built on Sep 2 2012 15:37:04
Библиотека кодирования : libebml v1.2.3 + libmatroska v1.3.0

Видео
Идентификатор : 1
Формат : AVC
Формат/Информация : Advanced Video Codec
Профиль формата : High@L4.1
Параметр CABAC формата : Да
Параметр ReFrames формата : 5 кадров
Идентификатор кодека : V_MPEG4/ISO/AVC
Продолжительность : 1 ч. 34 м.
Битрейт : 13,0 Мбит/сек
Ширина : 1920 пикселей
Высота : 816 пикселей
Соотношение сторон : 2,35:1
Режим частоты кадров : Постоянный
Частота кадров : 23,976 кадра/сек
Цветовое пространство : YUV
Субдискретизация насыщенности : 4:2:0
Битовая глубина : 8 бит
Тип развёртки : Прогрессивная
Бит/(Пиксели*Кадры) : 0.346
Размер потока : 8,36 Гбайт (85%)
Библиотека кодирования : x264 core 125 r2208 d9d2288
Настройки программы : cabac=1 / ref=5 / deblock=1:-3:-3 / analyse=0x3:0x133 / me=umh / subme=11 / psy=1 / psy_rd=1.00:0.25 / mixed_ref=1 / me_range=48 / chroma_me=1 / trellis=2 / 8x8dct=1 / cqm=0 / deadzone=21,11 / fast_pskip=0 / chroma_qp_offset=-4 / threads=12 / lookahead_threads=2 / sliced_threads=0 / nr=0 / decimate=0 / interlaced=0 / bluray_compat=0 / constrained_intra=0 / bframes=8 / b_pyramid=2 / b_adapt=2 / b_bias=0 / direct=3 / weightb=1 / open_gop=0 / weightp=2 / keyint=240 / keyint_min=23 / scenecut=40 / intra_refresh=0 / rc=2pass / mbtree=0 / bitrate=13000 / ratetol=1.0 / qcomp=0.60 / qpmin=0 / qpmax=69 / qpstep=4 / cplxblur=20.0 / qblur=0.5 / ip_ratio=1.40 / pb_ratio=1.30 / aq=1:1.00
Язык : English
Default : Да
Forced : Нет

Аудио #1
Идентификатор : 2
Формат : AC-3
Формат/Информация : Audio Coding 3
Расширение режима : CM (complete main)
Параметр Endianness формата : Big
Идентификатор кодека : A_AC3
Продолжительность : 1 ч. 34 м.
Вид битрейта : Постоянный
Битрейт : 192 Кбит/сек
Каналы : 2 канала
Расположение каналов : Front: L R
Частота : 48,0 КГц
Битовая глубина : 16 бит
Метод сжатия : С потерями
Размер потока : 129 Мбайт (1%)
Заголовок : PM
Язык : Russian
Default : Да
Forced : Нет

Аудио #2
Идентификатор : 3
Формат : AC-3
Формат/Информация : Audio Coding 3
Расширение режима : CM (complete main)
Параметр Endianness формата : Big
Идентификатор кодека : A_AC3
Продолжительность : 1 ч. 34 м.
Вид битрейта : Постоянный
Битрейт : 192 Кбит/сек
Каналы : 2 канала
Расположение каналов : Front: L R
Частота : 48,0 КГц
Битовая глубина : 16 бит
Метод сжатия : С потерями
Размер потока : 129 Мбайт (1%)
Заголовок : PD
Язык : Russian
Default : Нет
Forced : Нет

Аудио #3
Идентификатор : 4
Формат : DTS
Формат/Информация : Digital Theater Systems
Режим : 16
Параметр Endianness формата : Big
Идентификатор кодека : A_DTS
Продолжительность : 1 ч. 34 м.
Вид битрейта : Постоянный
Битрейт : 1509 Кбит/сек
Каналы : 6 каналов
Расположение каналов : Front: L C R, Side: L R, LFE
Частота : 48,0 КГц
Битовая глубина : 24 бит
Метод сжатия : С потерями
Размер потока : 1017 Мбайт (10%)
Язык : English
Default : Нет
Forced : Нет

Меню
00:00:00.000 : :Chapter 01
00:05:15.106 : :Chapter 02
00:07:35.037 : :Chapter 03
00:09:49.463 : :Chapter 04
00:14:13.685 : :Chapter 05
00:16:01.627 : :Chapter 06
00:20:27.643 : :Chapter 07
00:23:19.564 : :Chapter 08
00:26:17.993 : :Chapter 09
00:28:26.704 : :Chapter 10
00:31:36.936 : :Chapter 11
00:37:52.311 : :Chapter 12
00:42:34.677 : :Chapter 13
00:43:38.614 : :Chapter 14
00:46:43.342 : :Chapter 15
00:48:50.093 : :Chapter 16
00:51:11.818 : :Chapter 17
00:53:41.635 : :Chapter 18
00:55:09.723 : :Chapter 19
00:57:43.042 : :Chapter 20
01:00:14.360 : :Chapter 21
01:03:53.204 : :Chapter 22
01:08:17.218 : :Chapter 23
01:13:50.509 : :Chapter 24
01:15:10.046 : :Chapter 25
01:19:34.603 : :Chapter 26
01:23:29.087 : :Chapter 27
01:27:20.485 : :Chapter 28
01:34:15.858 : :Chapter 29



Страна: США
Студия: Conundrum Entertainment
Продолжительность: 01:34:16
Перевод: Профессиональный многоголосый (1-й канал), gрофессиональный двухголосый


Кодек: x264
Качество: BDRip 1080p
Видео: MPEG-4 AVC, 13.0 Мбит/с, 1280x544, 23.976 кадр/с
Звук:
Аудио #1: Русский (AC3, 2 ch, 192 Кбит/с) / Профессиональный многоголосый (1-й канал)
Аудио #1: Русский (AC3, 2 ch, 192 Кбит/с) / Профессиональный двухголосый
Аудио #2: Английский (DTS, 6 ch, 1509 Кбит/с)

Семпл









Релиз от: Рип - Викс
загрузка...
Правила, инструкции, FAQ!!!
Торрент  Добавлен [10 янв 2015, 22:13] Скачать торрент
Скачать торрент
[ Размер 50.39 КБ / Просмотров 11 ]

Статус
Проверен 
 
Размер  9.8 ГБ
Приватный: Нет (DHT включён)
.torrent скачан  27
Как залить торрент? | Как скачать Torrent? | Как смотреть и слушать онлайн?  


     Отправить личное сообщение
   
Страница 1 из 1
Показать сообщения за:  Поле сортировки  
Начать новую тему Ответить на тему

   Похожие торренты   Автор   Ответы   Просмотры   Последнее сообщение 
В этой теме нет новых непрочитанных сообщений. Скачать торрент Проверен Симулянт / The Ringer (2005) WEB-DLRip-AVC

в форуме Комедии, Размер: 1.31 ГБ, Здоровье: 100%

Anonymous

0
24|5

56
186

10 янв 2015, 22:18

Anonymous Перейти к последнему сообщению

В этой теме нет новых непрочитанных сообщений. Скачать торрент Проверен Шафер напрокат / The Wedding Ringer (2015) BDRip [576p] iPad

в форуме Фильмы для iPod, iPhone, iPad, Размер: 1.69 ГБ, Здоровье: 100%

Anonymous

0
66|3

24
2

13 сен 2015, 01:11

Anonymous Перейти к последнему сообщению

В этой теме нет новых непрочитанных сообщений. Скачать торрент Изо всех сил / Over the Top (2005) BDRip 1080p | P, P2, A

в форуме 720p | 1080p, Размер: 7.75 ГБ, Здоровье: 0%

Anonymous

0
0|0

20
0

14 мар 2014, 08:10

Anonymous Перейти к последнему сообщению

В этой теме нет новых непрочитанных сообщений. Скачать торрент Проверен Спи со мной / Lie with Me (2005) BDRip 1080p | P2

в форуме 720p | 1080p, Размер: 8.22 ГБ, Здоровье: 100%

Anonymous

0
29|6

26
270

03 ноя 2014, 23:29

Anonymous Перейти к последнему сообщению

В этой теме нет новых непрочитанных сообщений. Скачать торрент Казанова / Casanova (2005) BDRip 1080p

в форуме 720p | 1080p, Размер: 13.26 ГБ, Здоровье: 0%

Anonymous

0
0|0

22
0

15 мар 2014, 14:08

Anonymous Перейти к последнему сообщению



Сейчас этот форум просматривают: нет зарегистрированных пользователей и гости: 1


Вы не можете начинать темы
Вы не можете отвечать на сообщения
Вы не можете редактировать свои сообщения
Вы не можете удалять свои сообщения
Вы не можете добавлять вложения

Перейти:  

!ВНИМАНИЕ!
 Ресурс не предоставляет электронные версии произведений, а занимается лишь коллекционированием и каталогизацией ссылок, присылаемых и публикуемых на форуме нашими читателями. Если вы являетесь правообладателем какого-либо представленного материала и не желаете чтобы ссылка на него находилась в нашем каталоге, свяжитесь с нами и мы незамедлительно удалим её. Файлы для обмена на трекере предоставлены пользователями сайта, и администрация не несёт ответственности за их содержание. Просьба не заливать файлы, защищенные авторскими правами, а также файлы нелегального содержания!