На всех торрентах на трекере установлена скидка на скачивание в размере 100 процентов(а).
 Возможность скачивания торрента НЕ зависит от ограничений при низком ратио, низком аплоаде, требуемом ратио или требуемом аплоаде.


Начать новую тему Ответить на тему
Статистика раздачи
Размер: 6.38 ГБ | Добавлен: 10 янв 2015, 12:56 | Скачали: 2892
Сидеров: 473  [0 байт/сек]    Личеров: 382  [0 байт/сек]
Пред. тема | След. тема 

Автор
Сообщение

СообщениеДобавлено: 10 янв 2015, 12:56 

Название: Царь скорпионов 4: Утерянный трон
Оригинальное название: The Scorpion King: The Lost Throne
Год выхода: 2015
Жанр: боевик
Режиссер: Майк Эллиот
В ролях: Ройс Грейси, Эсме Бьянко, Майкл Бин, Бэрри Боствик, Стивен Данливи, Грант Эллиотт, Лу Ферриньо, Ли Гилл, Роджер Халстон, Брэндон Хардести

О фильме: В очередной киноленте про «Царя скорпионов» увидим мы как от своего трона отстранённый король-воин Матайюс решение принимает отправиться на страшное самое и ужасное задание жизни своей . Все это Матайюс сделать решает ради того, чтобы мир на земле его снова возродился. Все вроде бы своим шло чередом, но однажды от Матайюса его самый близкий отворачивается и лучший друг, такого никак он не мог предвидеть. Теперь самолично герой должен страшному противостоять злодею, который на все готов только бы убить его. Сможет ли Матайюс, все свои приложив силы, своему противнику противостоять ?! И добьётся ли герой наш того, ради чего отважился он на битву эту , наступит ли на его земле умиротворение?



Выпущено: США
Продолжительность: 01:44:51
Озвучивание: Любительское (многоголосное) [BaiBaKo]


Формат: MKV (x264)
Качество: BDRip 720p
Видео: 7519 kb/s, 1280x720
Аудио: Russian: AC3, 384 kb/s (6 ch) / English: AC3, 640 kb/s (6 ch)
Субтитры: English

Format : Matroska
Format version : Version 4 / Version 2
File size : 6.38 GiB
Duration : 1h 44mn
Overall bit rate : 8 717 Kbps
Encoded date : UTC 2015-01-10 08:28:47
Writing application : mkvmerge v6.1.0 ('Old Devil') built on Mar 4 2013 09:10:42
Writing library : libebml v1.3.0 + libmatroska v1.4.0

Video
ID : 1
Format : AVC
Format/Info : Advanced Video Codec
Format profile : High@L4.1
Format settings, CABAC : Yes
Format settings, ReFrames : 9 frames
Codec ID : V_MPEG4/ISO/AVC
Duration : 1h 44mn
Bit rate : 7 519 Kbps
Width : 1 280 pixels
Height : 720 pixels
Display aspect ratio : 16:9
Frame rate : 23.976 fps
Color space : YUV
Chroma subsampling : 4:2:0
Bit depth : 8 bits
Scan type : Progressive
Bits/(Pixel*Frame) : 0.340
Stream size : 5.51 GiB (86%)
Writing library : x264 core 144 r2525kMod 40bb568
Encoding settings : cabac=1 / ref=9 / deblock=1:-3:-3 / analyse=0x3:0x133 / me=umh / subme=10 / psy=1 / fade_compensate=0.00 / psy_rd=0.95:0.00 / mixed_ref=1 / me_range=32 / chroma_me=1 / trellis=2 / 8x8dct=1 / cqm=0 / deadzone=21,11 / fast_pskip=0 / chroma_qp_offset=-2 / threads=12 / lookahead_threads=2 / sliced_threads=0 / nr=0 / decimate=0 / interlaced=0 / bluray_compat=0 / constrained_intra=0 / fgo=0 / bframes=7 / b_pyramid=2 / b_adapt=2 / b_bias=0 / direct=3 / weightb=1 / open_gop=0 / weightp=2 / keyint=250 / keyint_min=23 / scenecut=40 / intra_refresh=0 / rc_lookahead=60 / rc=crf / mbtree=0 / crf=16.0000 / qcomp=0.60 / qpmin=0 / qpmax=69 / qpstep=4 / vbv_maxrate=62500 / vbv_bufsize=78125 / crf_max=0.0 / nal_hrd=none / filler=0 / ip_ratio=1.30 / pb_ratio=1.20 / aq=1:0.80
Language : English
Default : Yes
Forced : No
Color primaries : BT.709-5, BT.1361, IEC 61966-2-4, SMPTE RP177
Transfer characteristics : BT.709-5, BT.1361
Matrix coefficients : BT.709-5, BT.1361, IEC 61966-2-4 709, SMPTE RP177

Audio #1
ID : 2
Format : AC-3
Format/Info : Audio Coding 3
Mode extension : CM (complete main)
Format settings, Endianness : Big
Codec ID : A_AC3
Duration : 1h 44mn
Bit rate mode : Constant
Bit rate : 384 Kbps
Channel(s) : 6 channels
Channel positions : Front: L C R, Side: L R, LFE
Sampling rate : 48.0 KHz
Bit depth : 16 bits
Compression mode : Lossy
Stream size : 288 MiB (4%)
Language : Russian
Default : Yes
Forced : No

Audio #2
ID : 3
Format : AC-3
Format/Info : Audio Coding 3
Mode extension : CM (complete main)
Format settings, Endianness : Big
Codec ID : A_AC3
Duration : 1h 44mn
Bit rate mode : Constant
Bit rate : 640 Kbps
Channel(s) : 6 channels
Channel positions : Front: L C R, Side: L R, LFE
Sampling rate : 48.0 KHz
Bit depth : 16 bits
Compression mode : Lossy
Stream size : 480 MiB (7%)
Language : English
Default : No
Forced : No

Text
ID : 4
Format : UTF-8
Codec ID : S_TEXT/UTF8
Codec ID/Info : UTF-8 Plain Text
Language : English
Default : No
Forced : No
загрузка...
Правила, инструкции, FAQ!!!
Торрент  Добавлен [10 янв 2015, 12:56] Скачать торрент
Скачать торрент
[ Размер 16.63 КБ / Просмотров 7 ]

Статус
Проверен 
 
Размер  6.38 ГБ
Приватный: Нет (DHT включён)
.torrent скачан  2892
Как залить торрент? | Как скачать Torrent? | Как смотреть и слушать онлайн?  


     Отправить личное сообщение
   
Страница 1 из 1
Показать сообщения за:  Поле сортировки  
Начать новую тему Ответить на тему

   Похожие торренты   Автор   Ответы   Просмотры   Последнее сообщение 
В этой теме нет новых непрочитанных сообщений. Скачать торрент Проверен Царь скорпионов 4: Утерянный трон / The Scorpion King: The Lost Throne (2015) HDRip | BaiBaKo

в форуме Боевики, Размер: 1.45 ГБ, Здоровье: 100%

Гость

0
2162|646

57
7150

10 янв 2015, 11:25

Гость Перейти к последнему сообщению

В этой теме нет новых непрочитанных сообщений. Скачать торрент Проверен Царь скорпионов 4: Утерянный трон / The Scorpion King: The Lost Throne / The Scorpion King 4: Quest for Power (2015) BDRip [1080p]

в форуме 720p | 1080p, Размер: 7.93 ГБ, Здоровье: 100%

Гость

0
214|5

36
1

10 янв 2015, 13:16

Гость Перейти к последнему сообщению

В этой теме нет новых непрочитанных сообщений. Скачать торрент Проверен [iPad] Царь скорпионов 4: Утерянный трон / The Scorpion King: The Lost Throne (Майк Эллиот / Mike Elliott ) [2015, США, Боевик, BDRip, SD (576p)] MVO + Original + sub (eng)

в форуме Фильмы для iPod, iPhone, iPad, Размер: 1.84 ГБ, Здоровье: 100%

Гость

0
27|9

24
0

18 май 2015, 10:34

Гость Перейти к последнему сообщению

В этой теме нет новых непрочитанных сообщений. Скачать торрент Проверен Царь скорпионов 2: Восхождение воина / The Scorpion King 2: Rise of a Warrior (Рассел Малкэй / Russell Mulcahy) [2008 г., боевик, приключения, HDRip] MVO

в форуме Боевики, Размер: 1.46 ГБ, Здоровье: 0%

Anonymous

0
0|0

54
0

06 фев 2014, 11:43

Anonymous Перейти к последнему сообщению

В этой теме нет новых непрочитанных сообщений. Скачать торрент Проверен Скорпион / Scorpion [S02] (2015) WEB-DL 720p | BaibaKo

в форуме Зарубежные сериалы, Размер: 31.9 ГБ, Здоровье: 33%

Гость

0
8|24

112
26

05 май 2016, 19:35

Гость Перейти к последнему сообщению



Сейчас этот форум просматривают: нет зарегистрированных пользователей и гости: 1


Вы не можете начинать темы
Вы не можете отвечать на сообщения
Вы не можете редактировать свои сообщения
Вы не можете удалять свои сообщения
Вы не можете добавлять вложения

Перейти:  

!ВНИМАНИЕ!
 Ресурс не предоставляет электронные версии произведений, а занимается лишь коллекционированием и каталогизацией ссылок, присылаемых и публикуемых на форуме нашими читателями. Если вы являетесь правообладателем какого-либо представленного материала и не желаете чтобы ссылка на него находилась в нашем каталоге, свяжитесь с нами и мы незамедлительно удалим её. Файлы для обмена на трекере предоставлены пользователями сайта, и администрация не несёт ответственности за их содержание. Просьба не заливать файлы, защищенные авторскими правами, а также файлы нелегального содержания!