На всех торрентах на трекере установлена скидка на скачивание в размере 100 процентов(а).
 Возможность скачивания торрента НЕ зависит от ограничений при низком ратио, низком аплоаде, требуемом ратио или требуемом аплоаде.


Начать новую тему Ответить на тему
Статистика раздачи
Размер: 4.72 ГБ | Добавлен: 09 янв 2015, 23:38 | Скачали: 0
Сидеров: 69  [0 байт/сек]    Личеров: 29  [0 байт/сек]
Пред. тема | След. тема 

Автор
Сообщение

СообщениеДобавлено: 09 янв 2015, 23:38 

Производство: Китай, Гонконг | Beijing Silver Moon Productions, Emperor Motion Pictures, Heart & Soul Production
Жанр: Боевик, Триллер
Перевод: Одноголосый закадровый, любительский (Вячеслав Замез)[.] по переводу mihalev
Субтитры: Вшитые, отключаемые
Язык субтитров: Русский, английский

Дата мировой премьеры: 12 октября 2014

Режиссер: Тедди Чан
Продюсер: Катрин Хун, Алекс Тонг
Актеры: Донни Йен, Чарли Енг, Ван Баоцян, Бин Бай, Дип Нг, Алекс Фонг, Юй Кан, Фан Сю-Вонг, Юй Син, Билли Чан

Описание фильма:
Бывший полицейский инструктор по боевым искусствам заключен в тюрьму после того, как случайно убил человека. Когда объявляется серийный убийца специализирующийся на мастерах боевых искусств, он предлагает помощь полиции в обмен на свою свободу.



Дата мировой премьеры: 12 октября 2014

Продолжительность: 01:40:02
Качество видео: BDRip 720p

Видео: MPEG-4 AVC/H.264, 1280x544 (2.35:1), 24.000 fps, 5 532 Kbps (0.331 bit/pixel)
Аудио #1: AC-3, 48.0 KHz, 6 ch, 448 Kbps, CBR (Русский)
Аудио #2: AC-3, 48.0 KHz, 6 ch, 640 Kbps, CBR (Китайский)
Complete name \Kung.Fu.Jungle.2014.BDRip.720p.mkv
Format : Matroska
Format version : Version 2
File size : 4.72 GiB
Duration : 1h 40mn
Overall bit rate : 6 754 Kbps
Encoded date : UTC 2015-01-04 19:24:11
Writing application : mkvmerge v5.8.0 ('No Sleep / Pillow') built on Sep 2 2012 15:37:04
Writing library : libebml v1.2.3 + libmatroska v1.3.0

Video
ID : 1
Format : AVC
Format/Info : Advanced Video Codec
Format profile :
Format settings, CABAC : Yes
Format settings, ReFrames : 12 frames
Codec ID : V_MPEG4/ISO/AVC
Duration : 1h 40mn
Bit rate : 5 532 Kbps
Width : 1 280 pixels
Height : 544 pixels
Display aspect ratio : 2.35:1
Frame rate mode : Constant
Frame rate : 24.000 fps
Color space : YUV
Chroma subsampling : 4:2:0
Bit depth : 8 bits
Scan type : Progressive
Bits/(Pixel*Frame) : 0.331
Stream size : 3.87 GiB (82%)
Writing library : x264 core 142 r2491kMod 24e4fed
Encoding settings : cabac=1 / ref=12 / deblock=1:-3:-3 / analyse=0x3:0x113 / me=umh / subme=10 / psy=1 / fade_compensate=0.00 / psy_rd=1.00:0.00 / mixed_ref=1 / me_range=32 / chroma_me=1 / trellis=2 / 8x8dct=1 / cqm=0 / deadzone=21,11 / fast_pskip=0 / chroma_qp_offset=-2 / threads=12 / lookahead_threads=2 / sliced_threads=0 / nr=0 / decimate=0 / interlaced=0 / bluray_compat=0 / constrained_intra=0 / fgo=0 / bframes=7 / b_pyramid=2 / b_adapt=2 / b_bias=0 / direct=3 / weightb=1 / open_gop=0 / weightp=2 / keyint=250 / keyint_min=24 / scenecut=40 / intra_refresh=0 / rc_lookahead=40 / rc=crf / mbtree=0 / crf=15.7000 / qcomp=0.60 / qpmin=0 / qpmax=69 / qpstep=4 / vbv_maxrate=62500 / vbv_bufsize=78125 / crf_max=0.0 / nal_hrd=none / filler=0 / ip_ratio=1.30 / pb_ratio=1.20 / aq=1:0.90 / zones=180,981,crf=11.7/2532,4922,crf=11.2/26877,26952,crf=10.7/27019,27178,crf=10.7
Language : Chinese
Default : Yes
Forced : No

Audio #1
ID : 2
Format : AC-3
Format/Info : Audio Coding 3
Mode extension : CM (complete main)
Format settings, Endianness : Big
Codec ID : A_AC3
Duration : 1h 40mn
Bit rate mode : Constant
Bit rate : 448 Kbps
Channel(s) : 6 channels
Channel positions : Front: L C R, Side: L R, LFE
Sampling rate : 48.0 KHz
Bit depth : 16 bits
Compression mode : Lossy
Stream size : 321 MiB (7%)
Title : Вячеслав Замез
Language : Russian
Default : Yes
Forced : Yes

Audio #2
ID : 3
Format : AC-3
Format/Info : Audio Coding 3
Mode extension : CM (complete main)
Format settings, Endianness : Big
Codec ID : A_AC3
Duration : 1h 40mn
Bit rate mode : Constant
Bit rate : 640 Kbps
Channel(s) : 6 channels
Channel positions : Front: L C R, Side: L R, LFE
Sampling rate : 48.0 KHz
Bit depth : 16 bits
Compression mode : Lossy
Stream size : 458 MiB (9%)
Language : Chinese
Default : No
Forced : No

Text #1
ID : 4
Format : UTF-8
Codec ID : S_TEXT/UTF8
Codec ID/Info : UTF-8 Plain Text
Title : mihalev
Language : Russian
Default : No
Forced : No

Text #2
ID : 5
Format : UTF-8
Codec ID : S_TEXT/UTF8
Codec ID/Info : UTF-8 Plain Text
Language : English
Default : No
Forced : No

Menu
00:00:00.000 : :.1
00:07:54.667 : :.2
00:14:51.083 : :.3
00:25:19.083 : :.4
00:33:39.458 : :.5
00:41:16.750 : :.6
00:50:02.208 : :.7
00:58:43.417 : :.8
01:07:20.000 : :.9
01:14:41.833 : :.10
01:23:55.917 : :.11
01:33:36.708 : :.12
Скриншоты:

загрузка...
Правила, инструкции, FAQ!!!
Торрент  Добавлен [09 янв 2015, 23:38] Скачать торрент
Скачать торрент
[ Размер 24.36 КБ / Просмотров 3 ]

Статус
Проверен 
 
Размер  4.72 ГБ
Приватный: Нет (DHT включён)
.torrent скачан  0
Как залить торрент? | Как скачать Torrent? | Как смотреть и слушать онлайн?  


     Отправить личное сообщение
   
Страница 1 из 1
Показать сообщения за:  Поле сортировки  
Начать новую тему Ответить на тему

   Похожие торренты   Автор   Ответы   Просмотры   Последнее сообщение 
В этой теме нет новых непрочитанных сообщений. Скачать торрент Проверен Последний из лучших / Yat ku chan dik mou lam / Kung Fu Killer (2014) HDRip [H.264]

в форуме Боевики, Размер: 1.46 ГБ, Здоровье: 0%

Гость

0
0|0

51
0

09 янв 2015, 23:42

Гость Перейти к последнему сообщению

В этой теме нет новых непрочитанных сообщений. Скачать торрент Проверен Cryer J.D., Kung-Sik Chan - Time Series Analysis With Applications in R [2008, PDF, ENG]

в форуме Веб-дизайн и программирование, Размер: 5.44 МБ, Здоровье: 100%

Anonymous

0
2|1

0
0

22 окт 2016, 13:39

Anonymous Перейти к последнему сообщению

В этой теме нет новых непрочитанных сообщений. Скачать торрент Проверен Последний бриллиант / Le dernier diamant (2014) BDRip 720p

в форуме 720p | 1080p, Размер: 3.23 ГБ, Здоровье: 100%

Гость

0
162|7

40
1758

23 янв 2015, 16:27

Гость Перейти к последнему сообщению

В этой теме нет новых непрочитанных сообщений. Поворот не туда 6: Последний курорт / Wrong Turn 6: Last Resort (2014) BDRip 720p | Unrated | P

в форуме Новинки кино, Размер: 4.5 ГБ, Здоровье: 100%

Anonymous

0
148|9

203
556

20 окт 2014, 11:34

Anonymous Перейти к последнему сообщению

В этой теме нет новых непрочитанных сообщений. Скачать торрент Добро пожаловать в джунгли / Welcome to the Jungle (2013) BDRip 720p | L2

в форуме 720p | 1080p, Размер: 4.67 ГБ, Здоровье: 100%

Anonymous

0
10|0

371
8

08 фев 2014, 22:30

Anonymous Перейти к последнему сообщению



Сейчас этот форум просматривают: нет зарегистрированных пользователей и гости: 1


Вы не можете начинать темы
Вы не можете отвечать на сообщения
Вы не можете редактировать свои сообщения
Вы не можете удалять свои сообщения
Вы не можете добавлять вложения

Перейти:  

!ВНИМАНИЕ!
 Ресурс не предоставляет электронные версии произведений, а занимается лишь коллекционированием и каталогизацией ссылок, присылаемых и публикуемых на форуме нашими читателями. Если вы являетесь правообладателем какого-либо представленного материала и не желаете чтобы ссылка на него находилась в нашем каталоге, свяжитесь с нами и мы незамедлительно удалим её. Файлы для обмена на трекере предоставлены пользователями сайта, и администрация не несёт ответственности за их содержание. Просьба не заливать файлы, защищенные авторскими правами, а также файлы нелегального содержания!