На всех торрентах на трекере установлена скидка на скачивание в размере 100 процентов(а).
 Возможность скачивания торрента НЕ зависит от ограничений при низком ратио, низком аплоаде, требуемом ратио или требуемом аплоаде.


Начать новую тему Ответить на тему
Статистика раздачи
Размер: 3.43 ГБ | Добавлен: 08 янв 2015, 23:55 | Скачали: 310
Сидеров: 104  [0 байт/сек]    Личеров: 40  [0 байт/сек]
Пред. тема | След. тема 

Автор
Сообщение

СообщениеДобавлено: 08 янв 2015, 23:55 

Название: Ведьма из Блэр: Курсовая с того света
Оригинальное название: The Blair Witch Project
Год выхода: 1999
Жанр: ужасы, детектив
Режиссер: Дэниэл Мирик, Эдуардо Санчес
В ролях: Хезер Донахью, Джошуа Леонард, Майкл С. Уильямс, Боб Гриффин, Джим Кинг, Сандра Санчес, Эд Суонсон, Патриция ДеКу, Марк Мейсон, Джеки Холлекс

О фильме: В октябре 1994 года трое студентов-кинематографистов исчезли в лесах штата Мэриленд во время съемок документального фильма… Год спустя отснятый ими материал был найден.

Они приехали в лес на Черных холмах в штате Мэрилэнд, чтобы снять документальный фильм о местной легенде — Ведьме из Блэр, мучившей и убивавшей всех, кто забредал в ее владения. В предании говорится о вековом проклятии, ритуальных убийствах детей, зловещих артефактах и сверхъестественных явлениях. Но не успели студенты, вооруженные 16-миллиметровой камерой, углубиться в лес, как безнадежно заблудились. Вокруг них сгущается невидимое зло…



Выпущено: Haxan Films
Продолжительность: 01:21:20
Перевод: Многоголосый закадровый (Екатеринбург Арт) + Авторский (С.Визгунов)


Кодек: x264
Качество: BDRip (источник: Blu-ray Disc)
Видео: 988x720 (1,33:1), 23.976 fps, 5390 kbps
Аудио #1: AC-3, 2 ch, 224 kbps (Многоголосый закадровый, Екатеринбург Арт)
Аудио #2: AC-3, 2 ch, 192 kbps (Одноголосый закадровый, С.Визгунов)
Аудио #3: AC-3, 2 ch, 224 kbps (Original)
Субтитры: Русские, Английские
Скачать: сэмпл

Скриншоты

Общее
Уникальный идентификатор : 185542566382744811489574864469856761666 (0x8B9632CDFAC3A74ABBCE765722B23742)
Полное имя : The.Blair.Witch.Project.1999.BDRip.720p.Rus.Eng.mkv
Формат : Matroska
Версия формата : Version 2
Размер файла : 3,43 Гбайт
Продолжительность : 1 ч. 21 м.
Общий поток : 6031 Кбит/сек
Название фильма : Ведьма из Блэр: Курсовая с того света / The Blair Witch Project (1999)
Дата кодирования : UTC 2015-01-07 14:09:12
Программа кодирования : mkvmerge v5.8.0 ('No Sleep / Pillow') built on Sep 2 2012 15:37:04
Библиотека кодирования : libebml v1.2.3 + libmatroska v1.3.0

Видео
Идентификатор : 1
Формат : AVC
Формат/Информация : Advanced Video Codec
Профиль формата : High@L4.1
Параметр CABAC формата : Да
Параметр ReFrames формата : 9 кадров
Идентификатор кодека : V_MPEG4/ISO/AVC
Продолжительность : 1 ч. 21 м.
Битрейт : 5389 Кбит/сек
Ширина : 988 пикселей
Высота : 720 пикселей
Соотношение сторон : 1,372
Режим частоты кадров : Постоянный
Частота кадров : 23,976 кадра/сек
Цветовое пространство : YUV
Субдискретизация насыщенности : 4:2:0
Битовая глубина : 8 бит
Тип развёртки : Прогрессивная
Бит/(Пиксели*Кадры) : 0.316
Размер потока : 2,99 Гбайт (87%)
Заголовок : Release by AlexKa
Библиотека кодирования : x264 core 144 r2525 40bb568
Настройки программы : cabac=1 / ref=9 / deblock=1:0:0 / analyse=0x3:0x133 / me=umh / subme=9 / psy=1 / psy_rd=1.00:0.00 / mixed_ref=1 / me_range=32 / chroma_me=1 / trellis=2 / 8x8dct=1 / cqm=0 / deadzone=21,11 / fast_pskip=0 / chroma_qp_offset=-2 / threads=12 / lookahead_threads=3 / sliced_threads=0 / nr=0 / decimate=1 / interlaced=0 / bluray_compat=0 / constrained_intra=0 / bframes=16 / b_pyramid=2 / b_adapt=2 / b_bias=0 / direct=3 / weightb=1 / open_gop=0 / weightp=2 / keyint=240 / keyint_min=23 / scenecut=40 / intra_refresh=0 / rc=2pass / mbtree=0 / bitrate=5389 / ratetol=1.0 / qcomp=0.60 / qpmin=0 / qpmax=69 / qpstep=4 / cplxblur=20.0 / qblur=0.5 / ip_ratio=1.40 / pb_ratio=1.30 / aq=1:1.00
Язык : English

Аудио #1
Идентификатор : 2
Формат : AC-3
Формат/Информация : Audio Coding 3
Расширение режима : CM (complete main)
Параметр Endianness формата : Big
Идентификатор кодека : A_AC3
Продолжительность : 1 ч. 21 м.
Вид битрейта : Постоянный
Битрейт : 224 Кбит/сек
Каналы : 2 канала
Расположение каналов : Front: L R
Частота : 48,0 КГц
Битовая глубина : 16 бит
Метод сжатия : С потерями
Размер потока : 130 Мбайт (4%)
Заголовок : Многоголосый закадровый, Екатеринбург Арт
Язык : Russian

Аудио #2
Идентификатор : 3
Формат : AC-3
Формат/Информация : Audio Coding 3
Расширение режима : CM (complete main)
Параметр Endianness формата : Big
Идентификатор кодека : A_AC3
Продолжительность : 1 ч. 21 м.
Вид битрейта : Постоянный
Битрейт : 192 Кбит/сек
Каналы : 2 канала
Расположение каналов : Front: L R
Частота : 48,0 КГц
Битовая глубина : 16 бит
Метод сжатия : С потерями
Размер потока : 112 Мбайт (3%)
Заголовок : Одноголосый закадровый, С.Визгунов
Язык : Russian

Аудио #3
Идентификатор : 4
Формат : AC-3
Формат/Информация : Audio Coding 3
Расширение режима : CM (complete main)
Параметр Endianness формата : Big
Идентификатор кодека : A_AC3
Продолжительность : 1 ч. 21 м.
Вид битрейта : Постоянный
Битрейт : 224 Кбит/сек
Каналы : 2 канала
Расположение каналов : Front: L R
Частота : 48,0 КГц
Битовая глубина : 16 бит
Метод сжатия : С потерями
Размер потока : 130 Мбайт (4%)
Заголовок : Original
Язык : English

Текст #1
Идентификатор : 5
Формат : UTF-8
Идентификатор кодека : S_TEXT/UTF8
Идентификатор кодека/Информация : UTF-8 Plain Text
Заголовок : Rus
Язык : Russian

Текст #2
Идентификатор : 6
Формат : UTF-8
Идентификатор кодека : S_TEXT/UTF8
Идентификатор кодека/Информация : UTF-8 Plain Text
Заголовок : Eng
Язык : English

Меню
00:00:00.000 : :Chapter 01
00:04:05.912 : :Chapter 02
00:10:12.737 : :Chapter 03
00:14:01.466 : :Chapter 04
00:17:35.721 : :Chapter 05
00:21:29.038 : :Chapter 06
00:24:38.894 : :Chapter 07
00:27:35.571 : :Chapter 08
00:30:29.036 : :Chapter 09
00:36:34.651 : :Chapter 10
00:41:04.253 : :Chapter 11
00:44:57.278 : :Chapter 12
00:48:19.105 : :Chapter 13
00:54:08.245 : :Chapter 14
00:58:31.425 : :Chapter 15
01:10:13.543 : :Chapter 16
x264 [info]: frame I:526 Avg QP:18.80 size: 66007
x264 [info]: frame P:22249 Avg QP:21.89 size: 40156
x264 [info]: frame B:94231 Avg QP:23.61 size: 25039
x264 [info]: consecutive B-frames: 1.3% 2.8% 6.9% 16.0% 13.1% 25.0% 7.8% 4.7% 5.3% 2.4% 3.1% 4.0% 2.2% 1.7% 1.8% 1.0% 0.9%
загрузка...
Правила, инструкции, FAQ!!!
Торрент  Добавлен [08 янв 2015, 23:55] Скачать торрент
Скачать торрент
[ Размер 17.86 КБ / Просмотров 7 ]

Статус
Проверен 
 
Размер  3.43 ГБ
Приватный: Нет (DHT включён)
.torrent скачан  310
Как залить торрент? | Как скачать Torrent? | Как смотреть и слушать онлайн?  


     Отправить личное сообщение
   
Страница 1 из 1
Показать сообщения за:  Поле сортировки  
Начать новую тему Ответить на тему

   Похожие торренты   Автор   Ответы   Просмотры   Последнее сообщение 
В этой теме нет новых непрочитанных сообщений. Скачать торрент Проверен Ведьма из Блэр: Курсовая с того света / The Blair Witch Project (1999) HDRip

в форуме Ужасы, Размер: 1.45 ГБ, Здоровье: 100%

Гость

0
177|14

116
133

08 янв 2015, 23:52

Гость Перейти к последнему сообщению

В этой теме нет новых непрочитанных сообщений. Скачать торрент Проверен Время ведьм / Season of the Witch (2011) BDRip 720p | D

в форуме 720p | 1080p, Размер: 4.37 ГБ, Здоровье: 100%

Anonymous

0
33|5

29
51

07 дек 2014, 11:32

Anonymous Перейти к последнему сообщению

В этой теме нет новых непрочитанных сообщений. Скачать торрент Проверен Ведьмина гора / Race to Witch Mountain (2009) BDRip 720p

в форуме 720p | 1080p, Размер: 5.25 ГБ, Здоровье: 100%

Anonymous

0
29|25

61
70

27 апр 2015, 22:21

Anonymous Перейти к последнему сообщению

В этой теме нет новых непрочитанных сообщений. Скачать торрент Проверен (Glam | Hard Rock) White Witch - White Witch - 1972 (1999), MP3, 320 kbps

в форуме Classic Rock & Hard Rock, Размер: 96.97 МБ, Здоровье: 0%

Anonymous

0
0|0

0
0

14 ноя 2016, 18:31

Anonymous Перейти к последнему сообщению

В этой теме нет новых непрочитанных сообщений. Скачать торрент Проверен Магия лунного света / Magic in the Moonlight (2014) BDRip 720p | Чистый звук

в форуме 720p | 1080p, Размер: 4.63 ГБ, Здоровье: 100%

Anonymous

0
776|76

56
646

03 дек 2014, 22:43

Anonymous Перейти к последнему сообщению



Сейчас этот форум просматривают: нет зарегистрированных пользователей и гости: 1


Вы не можете начинать темы
Вы не можете отвечать на сообщения
Вы не можете редактировать свои сообщения
Вы не можете удалять свои сообщения
Вы не можете добавлять вложения

Перейти:  

!ВНИМАНИЕ!
 Ресурс не предоставляет электронные версии произведений, а занимается лишь коллекционированием и каталогизацией ссылок, присылаемых и публикуемых на форуме нашими читателями. Если вы являетесь правообладателем какого-либо представленного материала и не желаете чтобы ссылка на него находилась в нашем каталоге, свяжитесь с нами и мы незамедлительно удалим её. Файлы для обмена на трекере предоставлены пользователями сайта, и администрация не несёт ответственности за их содержание. Просьба не заливать файлы, защищенные авторскими правами, а также файлы нелегального содержания!