На всех торрентах на трекере установлена скидка на скачивание в размере 100 процентов(а).
 Возможность скачивания торрента НЕ зависит от ограничений при низком ратио, низком аплоаде, требуемом ратио или требуемом аплоаде.


Начать новую тему Ответить на тему
Статистика раздачи
Размер: 5.76 ГБ | Добавлен: 08 янв 2015, 23:46 | Скачали: 575
Сидеров: 98  [0 байт/сек]    Личеров: 26  [0 байт/сек]
Пред. тема | След. тема 

Автор
Сообщение

СообщениеДобавлено: 08 янв 2015, 23:46 

Название: Охотники за разумом
Оригинальное название: Mindhunters
Год выхода: 2004
Жанр: ужасы, триллер, криминал, детектив
Режиссер: Ренни Харлин
В ролях: Эйон Бэйли, Клифтон Коллинз мл., Уилл Кемп, Вэл Килмер, Джонни Ли Миллер, Кэтрин Моррис, Кристиан Слэйтер, LL Кул Джей, Патрисия Веласкес, Кассандра Белл

О фильме:
На удаленном острове семь будущих агентов ФБР проходят решающий тест, чтобы попасть в элитный отдел «охотников за разумом» — людей, по мельчайшим уликам и любым сведениям составляющих психологические профили опаснейших преступников.
Но испытание становится слишком реальным, когда в их группе оказывается настоящий серийный убийца. Успеют ли оставшиеся в живых выявить маньяка в своих рядах, пока он не расправился с каждым поодиночке?



Выпущено: США, Нидерланды, Великобритания, Финляндия
Продолжительность: 01:45:52
Перевод: Дублированный + Оригинал


Кодек: x264
Качество: BDRip 1080p
Видео: 1920x816, 6902 Kbps, 23.976 fps
Аудио #1: AC-3, 6 ch, 448 kbps (Rus)
Аудио #2: AC-3, 6 ch, 448 kbps (Eng)
Cубтитры: русские, английские

Общее
Уникальный идентификатор : 190334133173575044886872614507203929213 (0x8F3105496FAB59D98107B8919E56247D)
Полное имя : Охотники за разумом.2004.BDRip.1080p.Rus.Eng.mkv
Формат : Matroska
Версия формата : Version 4 / Version 2
Размер файла : 5,76 Гбайт
Продолжительность : 1 ч. 45 м.
Общий поток : 7795 Кбит/сек
Название фильма : Охотники за разумом.2004
Дата кодирования : UTC 2010-02-22 21:41:31
Программа кодирования : mkvmerge v5.8.0 ('No Sleep / Pillow') built on Sep 30 2012 10:57:14
Библиотека кодирования : libebml v1.3.0 + libmatroska v1.4.0

Видео
Идентификатор : 1
Формат : AVC
Формат/Информация : Advanced Video Codec
Профиль формата : High@L4.1
Параметр CABAC формата : Да
Параметр ReFrames формата : 5 кадров
Идентификатор кодека : V_MPEG4/ISO/AVC
Продолжительность : 1 ч. 45 м.
Битрейт : 6902 Кбит/сек
Ширина : 1920 пикселей
Высота : 816 пикселей
Соотношение сторон : 2,35:1
Режим частоты кадров : Постоянный
Частота кадров : 23,976 кадра/сек
Цветовое пространство : YUV
Субдискретизация насыщенности : 4:2:0
Битовая глубина : 8 бит
Тип развёртки : Прогрессивная
Бит/(Пиксели*Кадры) : 0.184
Размер потока : 4,99 Гбайт (87%)
Заголовок : Rip by Boriy
Библиотека кодирования : x264 core 128 r2216 198a7ea
Настройки программы : cabac=1 / ref=5 / deblock=1:0:0 / analyse=0x3:0x113 / me=umh / subme=10 / psy=1 / psy_rd=1.00:0.10 / mixed_ref=1 / me_range=32 / chroma_me=1 / trellis=2 / 8x8dct=1 / cqm=0 / deadzone=21,11 / fast_pskip=0 / chroma_qp_offset=-3 / threads=12 / lookahead_threads=2 / sliced_threads=0 / nr=0 / decimate=0 / interlaced=0 / bluray_compat=0 / constrained_intra=0 / bframes=5 / b_pyramid=2 / b_adapt=2 / b_bias=0 / direct=3 / weightb=1 / open_gop=0 / weightp=2 / keyint=240 / keyint_min=23 / scenecut=40 / intra_refresh=0 / rc=2pass / mbtree=0 / bitrate=6902 / ratetol=1.0 / qcomp=0.60 / qpmin=0 / qpmax=69 / qpstep=4 / cplxblur=20.0 / qblur=0.5 / ip_ratio=1.40 / pb_ratio=1.30 / aq=1:0.80
Язык : English
Default : Да
Forced : Нет

Аудио #1
Идентификатор : 2
Формат : AC-3
Формат/Информация : Audio Coding 3
Расширение режима : CM (complete main)
Параметр Endianness формата : Big
Идентификатор кодека : A_AC3
Продолжительность : 1 ч. 45 м.
Вид битрейта : Постоянный
Битрейт : 448 Кбит/сек
Каналы : 6 каналов
Расположение каналов : Front: L C R, Side: L R, LFE
Частота : 48,0 КГц
Битовая глубина : 16 бит
Метод сжатия : С потерями
Размер потока : 339 Мбайт (6%)
Заголовок : Дубляж
Язык : Russian
Default : Да
Forced : Нет

Аудио #2
Идентификатор : 3
Формат : AC-3
Формат/Информация : Audio Coding 3
Расширение режима : CM (complete main)
Параметр Endianness формата : Big
Идентификатор кодека : A_AC3
Продолжительность : 1 ч. 45 м.
Вид битрейта : Постоянный
Битрейт : 448 Кбит/сек
Каналы : 6 каналов
Расположение каналов : Front: L C R, Side: L R, LFE
Частота : 48,0 КГц
Битовая глубина : 16 бит
Метод сжатия : С потерями
Размер потока : 339 Мбайт (6%)
Заголовок : Оригинал
Язык : English
Default : Нет
Forced : Нет

Текст #1
Идентификатор : 4
Формат : UTF-8
Идентификатор кодека : S_TEXT/UTF8
Идентификатор кодека/Информация : UTF-8 Plain Text
Язык : Russian
Default : Нет
Forced : Нет

Текст #2
Идентификатор : 5
Формат : UTF-8
Идентификатор кодека : S_TEXT/UTF8
Идентификатор кодека/Информация : UTF-8 Plain Text
Язык : English
Default : Нет
Forced : Нет

Меню
00:00:00.000 : :Chapter 1
00:04:01.574 : :Chapter 2
00:10:12.445 : :Chapter 3
00:15:10.826 : :Chapter 4
00:19:33.213 : :Chapter 5
00:25:51.716 : :Chapter 6
00:30:45.510 : :Chapter 7
00:36:33.399 : :Chapter 8
00:41:41.207 : :Chapter 9
00:47:49.032 : :Chapter 10
00:57:20.019 : :Chapter 11
01:06:23.729 : :Chapter 12
01:12:08.574 : :Chapter 13
01:18:31.748 : :Chapter 14
01:24:33.818 : :Chapter 15
01:28:25.091 : :Chapter 16
01:34:29.372 : :Chapter 17
01:40:02.454 : :Chapter 18
загрузка...
Правила, инструкции, FAQ!!!
Торрент  Добавлен [08 янв 2015, 23:46] Скачать торрент
Скачать торрент
[ Размер 29.36 КБ / Просмотров 3 ]

Статус
Проверен 
 
Размер  5.76 ГБ
Приватный: Нет (DHT включён)
.torrent скачан  575
Как залить торрент? | Как скачать Torrent? | Как смотреть и слушать онлайн?  


     Отправить личное сообщение
   
Страница 1 из 1
Показать сообщения за:  Поле сортировки  
Начать новую тему Ответить на тему

   Похожие торренты   Автор   Ответы   Просмотры   Последнее сообщение 
В этой теме нет новых непрочитанных сообщений. Скачать торрент Проверен Охотники за разумом / Mindhunters (2004) BDRip 720p

в форуме 720p | 1080p, Размер: 4.8 ГБ, Здоровье: 100%

Anonymous

0
24|0

35
192

08 янв 2015, 23:49

Anonymous Перейти к последнему сообщению

В этой теме нет новых непрочитанных сообщений. Скачать торрент Проверен Охотники за разумом / Mindhunters (2004) HDRip

в форуме Боевики, Размер: 1.45 ГБ, Здоровье: 100%

Гость

0
165|17

55
946

08 янв 2015, 23:43

Гость Перейти к последнему сообщению

В этой теме нет новых непрочитанных сообщений. Скачать торрент Проверен [iPad] Охотники за разумом / Mindhunters (Ренни Харлин/ Renny Harlin) [2004, США, Финляндия, Великобритания, Нидерланды, Триллер, драма, детектив, BDRip, 576p] Dub + Original + sub (rus, eng)

в форуме Фильмы для iPod, iPhone, iPad, Размер: 1.82 ГБ, Здоровье: 100%

Anonymous

0
9|3

54
0

14 май 2015, 00:02

Anonymous Перейти к последнему сообщению

В этой теме нет новых непрочитанных сообщений. Скачать торрент Проверен Охотники за сокровищами / The Monuments Men (2014) BDRip 1080p | Лицензия

в форуме 720p | 1080p, Размер: 9.37 ГБ, Здоровье: 100%

Anonymous

0
61|4

44
703

30 май 2014, 07:27

Anonymous Перейти к последнему сообщению

В этой теме нет новых непрочитанных сообщений. Скачать торрент Проверен Ван Хельсинг / Van Helsing (2004) BDRip 1080p

в форуме 720p | 1080p, Размер: 11.55 ГБ, Здоровье: 100%

Anonymous

0
15|4

54
282

11 июл 2014, 22:00

Anonymous Перейти к последнему сообщению



Сейчас этот форум просматривают: нет зарегистрированных пользователей и гости: 4


Вы не можете начинать темы
Вы не можете отвечать на сообщения
Вы не можете редактировать свои сообщения
Вы не можете удалять свои сообщения
Вы не можете добавлять вложения

Перейти:  

!ВНИМАНИЕ!
 Ресурс не предоставляет электронные версии произведений, а занимается лишь коллекционированием и каталогизацией ссылок, присылаемых и публикуемых на форуме нашими читателями. Если вы являетесь правообладателем какого-либо представленного материала и не желаете чтобы ссылка на него находилась в нашем каталоге, свяжитесь с нами и мы незамедлительно удалим её. Файлы для обмена на трекере предоставлены пользователями сайта, и администрация не несёт ответственности за их содержание. Просьба не заливать файлы, защищенные авторскими правами, а также файлы нелегального содержания!