На всех торрентах на трекере установлена скидка на скачивание в размере 100 процентов(а).
 Возможность скачивания торрента НЕ зависит от ограничений при низком ратио, низком аплоаде, требуемом ратио или требуемом аплоаде.


Начать новую тему Ответить на тему
Статистика раздачи
Размер: 2.25 ГБ | Добавлен: 08 янв 2015, 19:16 | Скачали: 0
Сидеров: 56  [0 байт/сек]    Личеров: 2  [0 байт/сек]
Пред. тема | След. тема 

Автор
Сообщение

СообщениеДобавлено: 08 янв 2015, 19:16 

Год выпуска: 2010
Производство: США
Жанр: Комедия, мелодрама

Режиссер: Джил Джангер
Актеры: Хилари Дафф, Джейми Прессли, Дженнифер Кулидж, Крис Кармак, Мэтт Даллас, Аманда Уолш, Майкл МакМиллиан, Лайл Брокато, Кортни Дж. Кларк, Патриция Френч

Описание фильма:
Что не сделаешь ради мечты. А если мечты две? И что же делать, чтобы обе они осуществились? Молодая начинающая журналистка из Нью-Йорка Лэйн мечтает попасть в супермодный журнал Cosmo, а еще мечтает найти идеального мужчину, который в точности соответствует ее списку волшебного избранника. Редактор Cosmo не настроена принимать девушку, но новая тема про любовь в офисе, мужчин в галстуках и свидания с ними, дает Лэйн шанс себя проявить, сделать просто грандиозную статью. Она устраивается на работу в крупный инвестиционный банк, где, оказывается, очень много мужчин в галстуках, которые совсем не против пойти с ней на свидание. Но тут появляется он – идеальный мужчина… Легкая, романтическая комедия с несравненной Хилари Дафф несомненно поднимет всем настроение.

Перевод: Профессиональный многоголосый
Субтитры: Отсутствуют



Продолжительность: 01:27:04
Качество видео: BDRip (AVC)

Видеокодек: MPEG-4 AVC
Битрейт видео: ~3469 Кбит/с
Размер кадра: 1280x720
Аудиокодек: AC3 6 ch
Битрейт аудио: 256 Кбит/с

Общее
Уникальный идентификатор : 254706881945989589138329035594053350122 (0xBF9EC2D753B35FBD81FAFEB03D0A72EA)
Полное имя : C:\NNM\Бизнес ради любви\Biznes 2010 BDRip 720p-LQ.mkv
Формат : Matroska
Версия формата : Version 2
Размер файла : 2,25 Гбайт
Продолжительность : 1 ч. 27 м.
Режим общего битрейта : Переменный
Общий поток : 3702 Кбит/сек
Дата кодирования : UTC 2011-02-11 17:37:26
Программа кодирования : mkvmerge v3.2.0 ('Beginnings') built on Feb 12 2010 16:46:17
Библиотека кодирования : libebml v0.7.9 + libmatroska v0.8.1

Видео
Идентификатор : 1
Формат : AVC
Формат/Информация : Advanced Video Codec
Профиль формата :
Параметр CABAC формата : Да
Параметр ReFrames формата : 3 кадра
Идентификатор кодека : V_MPEG4/ISO/AVC
Продолжительность : 1 ч. 27 м.
Вид битрейта : Переменный
Битрейт : 3469 Кбит/сек
Максимальный битрейт : 17,5 Мбит/сек
Ширина : 1280 пикселей
Высота : 720 пикселей
Соотношение сторон : 16:9
Частота кадров : 23,976 кадра/сек
Цветовое пространство : YUV
Субдискретизация насыщенности : 4:2:0
Битовая глубина : 8 бит
Тип развёртки : Прогрессивная
Бит/(Пиксели*Кадры) : 0.157
Размер потока : 2,05 Гбайт (91%)
Библиотека кодирования : x264 core 112 r1867 22bfd31
Настройки программы : cabac=1 / ref=1 / deblock=1:0:0 / analyse=0x3:0x3 / me=dia / subme=1 / psy=1 / psy_rd=0.00:0.00 / mixed_ref=0 / me_range=16 / chroma_me=1 / trellis=0 / 8x8dct=1 / cqm=0 / deadzone=21,11 / fast_pskip=1 / chroma_qp_offset=0 / threads=3 / sliced_threads=0 / slices=4 / nr=0 / decimate=1 / interlaced=0 / constrained_intra=0 / bframes=3 / b_pyramid=1 / b_adapt=1 / b_bias=0 / direct=1 / weightb=1 / open_gop=0 / weightp=1 / keyint=24 / keyint_min=1 / scenecut=40 / intra_refresh=0 / rc_lookahead=0 / rc=abr / mbtree=0 / bitrate=3469 / ratetol=1.0 / qcomp=0.60 / qpmin=0 / qpmax=51 / qpstep=4 / vbv_maxrate=17500 / vbv_bufsize=14500 / nal_hrd=vbr / ip_ratio=1.10 / pb_ratio=1.10 / aq=1:1.00
Язык : English
Default : Да
Forced : Нет

Аудио
Идентификатор : 2
Формат : AC-3
Формат/Информация : Audio Coding 3
Расширение режима : CM (complete main)
Идентификатор кодека : A_AC3
Продолжительность : 1 ч. 27 м.
Вид битрейта : Постоянный
Битрейт : 256 Кбит/сек
Каналы : 6 каналов
Расположение каналов : Front: L C R, Side: L R, LFE
Частота : 48,0 КГц
Битовая глубина : 16 бит
Метод сжатия : С потерями
Размер потока : 159 Мбайт (7%)
Заголовок : Профессиональное (многоголосое)
Язык : Russian
Default : Да
Forced : Нет
Скриншоты:
[center]
загрузка...
Правила, инструкции, FAQ!!!
Торрент  Добавлен [08 янв 2015, 19:16] Скачать торрент
Скачать торрент
[ Размер 12 КБ / Просмотров 2 ]

Статус
Проверен 
 
Размер  2.25 ГБ
Приватный: Нет (DHT включён)
.torrent скачан  0
Как залить торрент? | Как скачать Torrent? | Как смотреть и слушать онлайн?  


     Отправить личное сообщение
   
Страница 1 из 1
Показать сообщения за:  Поле сортировки  
Начать новую тему Ответить на тему

   Похожие торренты   Автор   Ответы   Просмотры   Последнее сообщение 
В этой теме нет новых непрочитанных сообщений. Скачать торрент Гюльчатай 2. Ради любви [01-16 из 16] (2013) HDTVRip

в форуме Отечественные сериалы, Размер: 10.49 ГБ, Здоровье: 100%

Anonymous

0
149|27

46
553

02 мар 2014, 15:49

Anonymous Перейти к последнему сообщению

В этой теме нет новых непрочитанных сообщений. Скачать торрент Проверен Город грехов 2: Женщина, ради которой стоит убивать / Sin City: A Dame to Kill For (2014) BDRip 720p | Лицензия

в форуме 720p | 1080p, Размер: 3.33 ГБ, Здоровье: 100%

Anonymous

0
478|80

128
2820

07 ноя 2014, 20:51

Anonymous Перейти к последнему сообщению

В этой теме нет новых непрочитанных сообщений. Скачать торрент Проверен Красота по-американски / American Beauty (1999) BDRip 720p

в форуме 720p | 1080p, Размер: 5.08 ГБ, Здоровье: 100%

Anonymous

0
16|2

30
218

11 авг 2014, 00:48

Anonymous Перейти к последнему сообщению

В этой теме нет новых непрочитанных сообщений. Скачать торрент Любви ради / What I Did for Love (Марк Гриффитс / Mark Griffiths) [2006 г., комедия, SATRip]

в форуме Комедии, Размер: 700.03 МБ, Здоровье: 100%

Anonymous

0
2|2

40
0

11 фев 2014, 09:14

Anonymous Перейти к последнему сообщению

В этой теме нет новых непрочитанных сообщений. Скачать торрент Великая красота / La Grande Bellezza / The Great Beauty (2013) BDRip 720p | Лицензия

в форуме 720p | 1080p, Размер: 10.19 ГБ, Здоровье: 100%

Anonymous

0
11|2

33
4

08 мар 2014, 16:50

Anonymous Перейти к последнему сообщению



Сейчас этот форум просматривают: нет зарегистрированных пользователей и гости: 4


Вы не можете начинать темы
Вы не можете отвечать на сообщения
Вы не можете редактировать свои сообщения
Вы не можете удалять свои сообщения
Вы не можете добавлять вложения

Перейти:  

!ВНИМАНИЕ!
 Ресурс не предоставляет электронные версии произведений, а занимается лишь коллекционированием и каталогизацией ссылок, присылаемых и публикуемых на форуме нашими читателями. Если вы являетесь правообладателем какого-либо представленного материала и не желаете чтобы ссылка на него находилась в нашем каталоге, свяжитесь с нами и мы незамедлительно удалим её. Файлы для обмена на трекере предоставлены пользователями сайта, и администрация не несёт ответственности за их содержание. Просьба не заливать файлы, защищенные авторскими правами, а также файлы нелегального содержания!