На всех торрентах на трекере установлена скидка на скачивание в размере 100 процентов(а).
 Возможность скачивания торрента НЕ зависит от ограничений при низком ратио, низком аплоаде, требуемом ратио или требуемом аплоаде.


Начать новую тему Ответить на тему
Статистика раздачи
Размер: 6.85 ГБ | Добавлен: 08 янв 2015, 18:35 | Скачали: 1
Сидеров: 257  [0 байт/сек]    Личеров: 6  [0 байт/сек]
Пред. тема | След. тема 

Автор
Сообщение

СообщениеДобавлено: 08 янв 2015, 18:35 

Производство: Италия, Event Film Distribution, Extreme Video Snc
Жанр: Фэнтези, Боевик, Приключения
Перевод: Двуголосый закадровый, профессиональный [Пиратская Студия]
Субтитры: Отсутствуют

Режиссер: Люка Бони, Марко Ристори
Продюсер: Уве Болл, Люка Бони
Актеры: Адриан Буше, Майк Митчелл, Дэниэл Вивиан, Айви Корбин, Элли МакКлелланд, Дэвид Уайт

Описание фильма:
После смертельной схватки — огненной войны, главный герой, который выжил благодаря своим умениям и боевому мастерству, должен выполнить обещание. Его он дал, погибшему на поле брани, другу. Суть клятвы была в том, чтобы уцелевший в битве товарищ, доставил усопшее тело на родину — домой. И держа данное слово, воин отправляется в неизведанный путь. Но дорога не так проста, как предвиделось. Препятствия ожидают странствующего везде. Но он непременно должен преодолеть все возникающие преграды ради друга. На неизведанных землях, рыцаря ожидают страшные твари. И хитрые болотные нимфы, и проклятые старые ведьмы, и бездушные, безликие существа, лица которых надежно скрыты под черными мантиями. Все они будут мешать воину, заставлять его отказаться от данного обещания, вводить в оману и пытаться убить, уничтожить его.



Продолжительность: 01:30:41
Качество видео: BDRip

Видеокодек: MPEG-4 AVC/H.264
Битрейт видео: ~9452 Кбит/с
Размер кадра: 1920x800

Аудио 1: Русский AC3, 2 ch, 384 Кбит/с
Аудио 2: Английский DTS, 6 ch, 768 Кбит/c

Сэмпл: Скачать
Чаптеры: Сохранены оригинальные чаптеры как на Blu-Ray
General
Complete name : E:\Morning.Star.2014.BDRip.1080p.mkv
Format : Matroska
File size : 6.85 GiB
Duration : 1h 30mn
Overall bit rate : 10.8 Mbps
Encoded date : UTC 2014-12-08 13:52:57
Writing application : mkvmerge v7.3.0 ('Nouages') 64bit built on Oct 22 2014 18:53:34
Writing library : libebml v1.3.0 + libmatroska v1.4.1

Video
ID : 1
Format : AVC
Format/Info : Advanced Video Codec
Format profile :
Format settings, CABAC : Yes
Format settings, ReFrames : 4 frames
Muxing mode : Container profile=Unknown@4.0
Codec ID : V_MPEG4/ISO/AVC
Duration : 1h 30mn
Bit rate : 9 466 Kbps
Width : 1 920 pixels
Height : 800 pixels
Display aspect ratio : 2.40:1
Frame rate : 24.000 fps
Resolution : 8 bits
Colorimetry : 4:2:0
Scan type : Progressive
Bits/(Pixel*Frame) : 0.257
Stream size : 5.99 GiB (87%)
Writing library : x264 core 130 r2273 b3065e6
Encoding settings : cabac=1 / ref=4 / deblock=1:-3:-3 / analyse=0x3:0x133 / me=umh / subme=9 / psy=1 / psy_rd=1.00:0.00 / mixed_ref=1 / me_range=32 / chroma_me=1 / trellis=2 / 8x8dct=1 / cqm=0 / deadzone=21,11 / fast_pskip=0 / chroma_qp_offset=-2 / threads=12 / lookahead_threads=1 / sliced_threads=0 / nr=0 / decimate=1 / interlaced=0 / bluray_compat=0 / constrained_intra=0 / bframes=5 / b_pyramid=2 / b_adapt=2 / b_bias=0 / direct=3 / weightb=1 / open_gop=0 / weightp=2 / keyint=240 / keyint_min=24 / scenecut=40 / intra_refresh=0 / rc_lookahead=50 / rc=crf / mbtree=1 / crf=16.0 / qcomp=0.60 / qpmin=0 / qpmax=69 / qpstep=4 / ip_ratio=1.40 / aq=1:1.00
Color primaries : BT.709-5, BT.1361, IEC 61966-2-4, SMPTE RP177
Transfer characteristics : BT.709-5, BT.1361
Matrix coefficients : BT.709-5, BT.1361, IEC 61966-2-4 709, SMPTE RP177

Audio #1
ID : 2
Format : AC-3
Format/Info : Audio Coding 3
Codec ID : A_AC3
Duration : 1h 30mn
Bit rate mode : Constant
Bit rate : 384 Kbps
Channel(s) : 2 channels
Channel positions : L R
Sampling rate : 48.0 KHz
Stream size : 249 MiB (4%)
Title : Пиратская Студия
Language : Russian

Audio #2
ID : 3
Format : DTS
Format/Info : Digital Theater Systems
Codec ID : A_DTS
Duration : 1h 30mn
Bit rate mode : Constant
Bit rate : 755 Kbps
Channel(s) : 6 channels
Channel positions : Front: L C R, Surround: L R, LFE
Sampling rate : 48.0 KHz
Resolution : 16 bits
Stream size : 489 MiB (7%)

Menu
00:00:00.000 : en:Chapter 1
00:12:24.250 : en:Chapter 2
00:22:45.666 : en:Chapter 3
00:29:11.083 : en:Chapter 4
00:35:41.708 : en:Chapter 5
00:48:38.791 : en:Chapter 6
00:55:21.291 : en:Chapter 7
01:00:31.416 : en:Chapter 8
01:05:42.250 : en:Chapter 9
01:12:22.583 : en:Chapter 10
01:20:02.250 : en:Chapter 11
01:27:22.625 : en:Chapter 12

Скриншоты:

загрузка...
Правила, инструкции, FAQ!!!
Торрент  Добавлен [08 янв 2015, 18:35] Скачать торрент
Скачать торрент
[ Размер 34.96 КБ / Просмотров 8 ]

Статус
Проверен 
 
Размер  6.85 ГБ
Приватный: Нет (DHT включён)
.torrent скачан  1
Как залить торрент? | Как скачать Torrent? | Как смотреть и слушать онлайн?  


     Отправить личное сообщение
   
Страница 1 из 1
Показать сообщения за:  Поле сортировки  
Начать новую тему Ответить на тему

   Похожие торренты   Автор   Ответы   Просмотры   Последнее сообщение 
В этой теме нет новых непрочитанных сообщений. Скачать торрент Проверен Утренняя звезда / Morning Star (2014) HDRip | L1

в форуме Фантастика, Фэнтези, Размер: 1.37 ГБ, Здоровье: 100%

Гость

0
816|27

76
18292

28 ноя 2014, 16:55

Гость Перейти к последнему сообщению

В этой теме нет новых непрочитанных сообщений. Скачать торрент Проверен Утренняя звезда / Morning Star (2014) HDRip [576p] iPad

в форуме Фильмы для iPod, iPhone, iPad, Размер: 1.9 ГБ, Здоровье: 100%

Anonymous

0
31|1

38
0

12 дек 2014, 23:00

Anonymous Перейти к последнему сообщению

В этой теме нет новых непрочитанных сообщений. Скачать торрент Проверен Рок-звезда / Rock Star (2001) BDRip-AVC | D, P2, A

в форуме Драмы, Мелодрамы, Размер: 2.83 ГБ, Здоровье: 60%

Anonymous

0
12|20

42
6

21 окт 2014, 18:49

Anonymous Перейти к последнему сообщению

В этой теме нет новых непрочитанных сообщений. Скачать торрент Проверен Рок-звезда / Rock Star (2001) BDRip 720p

в форуме 720p | 1080p, Размер: 2.35 ГБ, Здоровье: 100%

Anonymous

0
16|1

42
108

21 окт 2014, 18:55

Anonymous Перейти к последнему сообщению

В этой теме нет новых непрочитанных сообщений. Скачать торрент Третья звезда / Third Star (2010) DVDRip

в форуме Драмы, Мелодрамы, Размер: 1.45 ГБ, Здоровье: 0%

Anonymous

0
0|0

32
0

10 фев 2014, 09:35

Anonymous Перейти к последнему сообщению



Сейчас этот форум просматривают: нет зарегистрированных пользователей и гости: 1


Вы не можете начинать темы
Вы не можете отвечать на сообщения
Вы не можете редактировать свои сообщения
Вы не можете удалять свои сообщения
Вы не можете добавлять вложения

Перейти:  

!ВНИМАНИЕ!
 Ресурс не предоставляет электронные версии произведений, а занимается лишь коллекционированием и каталогизацией ссылок, присылаемых и публикуемых на форуме нашими читателями. Если вы являетесь правообладателем какого-либо представленного материала и не желаете чтобы ссылка на него находилась в нашем каталоге, свяжитесь с нами и мы незамедлительно удалим её. Файлы для обмена на трекере предоставлены пользователями сайта, и администрация не несёт ответственности за их содержание. Просьба не заливать файлы, защищенные авторскими правами, а также файлы нелегального содержания!