На всех торрентах на трекере установлена скидка на скачивание в размере 100 процентов(а).
 Возможность скачивания торрента НЕ зависит от ограничений при низком ратио, низком аплоаде, требуемом ратио или требуемом аплоаде.


Начать новую тему Ответить на тему
Статистика раздачи
Размер: 3.55 ГБ | Добавлен: 14 апр 2013, 09:30 | Скачали: 0
Сидеров: 0  [0 байт/сек]    Личеров: 0  [0 байт/сек]
Пред. тема | След. тема 

Автор
Сообщение

СообщениеДобавлено: 14 апр 2013, 09:30 

Название: Раз! Два! Три! Умри! / Любовь на колёсах
Оригинальное название: Sightseers
Год выхода: 2012
Жанр: комедия
Режиссер: Бен Уитли

В фильме снимались: Элис Лоу, Стив Орам, Эйлин Дейвис, Ричард Гловер, Моника Долан, Джонатан Арис, Ричард Ламсден, Рэйчел Остин, Тони Вэй, Доминик Эпплуайт

Вкратце: Самая обычная влюбленная парочка, Тина и Крис, отправляются в самое обычное путешествие по северу Англии в самом обычном фургончике. Внешне они ничем не отличаются от типичных английских туристов — милые, похотливые и одержимые друг другом зануды, которых раздражает и бесит практически всё: от шумных сектантов и брошенной на пол в автобусе обертки мороженого до обидных слов в свой адрес и хвастовства случайных милых знакомых. Вот только Крис совсем не относится к числу тех, кто готов мириться с «раздражителями», а Тина окажется вовсе не так невинна: идеальные убойные каникулы влюбленных начинаются в Англии.



Выпущено: Великобритания / BFI, Big Talk Productions, Film4, Rook Films, StudioCanal
Продолжительность: 01:28:10
Озвучивание: Любительское (одноголосое) [viRys]


Качество: BDRip 720p
Формат: MKV (H.264)
Видео: 4556 Kb/s, 1280x544
Аудио: Russian: AC3, 448 kb/s (6 ch) / English: DTS, 755 Kb/s (6 ch)

General
Unique ID : 249463842465045916667638537030218215509 (0xBBACFD0963E4ADC09AE52EA4A922F055)
Complete name : Raz.dva.tri.umri.2012.L1.BDRip.720p.mkv
Format : Matroska
Format version : Version 2
File size : 3.55 GiB
Duration : 1h 28mn
Overall bit rate : 5 771 Kbps
Encoded date : UTC 2013-04-13 16:18:06
Writing application : mkvmerge v5.2.0 ('I can't explain') built on Dec 18 2011 18:12:03
Writing library : libebml v1.2.3 + libmatroska v1.3.0

Video
ID : 1
Format : AVC
Format/Info : Advanced Video Codec
Format profile : High@L4.1
Format settings, CABAC : Yes
Format settings, ReFrames : 12 frames
Codec ID : V_MPEG4/ISO/AVC
Duration : 1h 28mn
Bit rate : 4 556 Kbps
Width : 1 280 pixels
Height : 544 pixels
Display aspect ratio : 2.35:1
Frame rate : 23.976 fps
Color space : YUV
Chroma subsampling : 4:2:0
Bit depth : 8 bits
Scan type : Progressive
Bits/(Pixel*Frame) : 0.273
Stream size : 2.74 GiB (77%)
Writing library : x264 core 124 r2197+666+28 3970b70 tMod+MixAQ [8-bit@4:2:0 X86_64]
Encoding settings : cabac=1 / ref=12 / deblock=1:-2:-2 / analyse=0x3:0x133 / me=umh / subme=11 / psy=1 / fade_compensate=0.00 / psy_rd=1.00:0.00 / mixed_ref=1 / me_range=32 / chroma_me=1 / trellis=2 / 8x8dct=1 / cqm=0 / deadzone=21,11 / fast_pskip=0 / chroma_qp_offset=-2 / threads=12 / sliced_threads=0 / nr=0 / decimate=1 / interlaced=0 / bluray_compat=0 / constrained_intra=0 / fgo=3 / bframes=10 / b_pyramid=2 / b_adapt=2 / b_bias=0 / direct=3 / weightb=1 / open_gop=0 / weightp=2 / keyint=600 / keyint_min=1 / scenecut=40 / intra_refresh=0 / rc_lookahead=50 / rc=2pass / mbtree=0 / bitrate=4556 / ratetol=1.0 / qcomp=0.70 / qpmin=0 / qpmax=69 / qpstep=4 / cplxblur=20.0 / qblur=0.5 / vbv_maxrate=38000 / vbv_bufsize=30000 / nal_hrd=none / ip_ratio=1.40 / pb_ratio=1.22 / aq=1 / aq-strength=0.90 / aq-sensitivity=10.00 / aq-ifactor=1.00 / aq-pfactor=1.00 / aq-bfactor=1.00 / aq2=0
Language : English
Default : Yes
Forced : No
Matrix coefficients : BT.709-5, BT.1361, IEC 61966-2-4 709, SMPTE RP177

Audio #1
ID : 2
Format : AC-3
Format/Info : Audio Coding 3
Mode extension : CM (complete main)
Format settings, Endianness : Big
Codec ID : A_AC3
Duration : 1h 28mn
Bit rate mode : Constant
Bit rate : 448 Kbps
Channel(s) : 6 channels
Channel positions : Front: L C R, Side: L R, LFE
Sampling rate : 48.0 KHz
Bit depth : 16 bits
Compression mode : Lossy
Stream size : 283 MiB (8%)
Language : Russian
Default : Yes
Forced : No

Audio #2
ID : 3
Format : DTS
Format/Info : Digital Theater Systems
Codec ID : A_DTS
Duration : 1h 28mn
Bit rate mode : Constant
Bit rate : 755 Kbps
Channel(s) : 6 channels
Channel positions : Front: L C R, Side: L R, LFE
Sampling rate : 48.0 KHz
Bit depth : 24 bits
Compression mode : Lossy
Stream size : 476 MiB (13%)
Default : No
Forced : No

Menu
00:00:00.000 : en:00:00:00.000
00:07:39.709 : en:00:07:39.709
00:14:34.499 : en:00:14:34.499
00:22:28.389 : en:00:22:28.389
00:29:28.934 : en:00:29:28.934
00:35:56.571 : en:00:35:56.571
00:43:49.377 : en:00:43:49.377
00:51:26.166 : en:00:51:26.166
01:00:20.575 : en:01:00:20.575
01:08:21.806 : en:01:08:21.806
01:14:01.771 : en:01:14:01.771
01:20:35.581 : en:01:20:35.581
загрузка...
Правила, инструкции, FAQ!!!
Торрент  Добавлен [14 апр 2013, 09:30] Скачать торрент
Скачать торрент
[ Размер 18.25 КБ / Просмотров 4 ]

Статус  
 
Размер  3.55 ГБ
Приватный: Нет (DHT включён)
.torrent скачан  0
Как залить торрент? | Как скачать Torrent? | Как смотреть и слушать онлайн?  


     Отправить личное сообщение
   
Страница 1 из 1
Показать сообщения за:  Поле сортировки  
Начать новую тему Ответить на тему

   Похожие торренты   Автор   Ответы   Просмотры   Последнее сообщение 
В этой теме нет новых непрочитанных сообщений. Скачать торрент Проверен Острогин Макс - Здравствуй, брат, умри - серия Inferno [BlackTracktorist (ЛИ), 2012 г., 128 kbps, mono, MP3]

в форуме Российская фантастика, фэнтези, мистика, ужасы, фанфики, Размер: 610.37 МБ, Здоровье: 0%

Anonymous

0
0|0

4
0

10 сен 2016, 19:27

Anonymous Перейти к последнему сообщению

В этой теме нет новых непрочитанных сообщений. Скачать торрент Макс Острогин | Здравствуй, брат, умри (Серия "Inferno - 5") [2012] [MP3]

в форуме Фантастика, фэнтези, Размер: 610.37 МБ, Здоровье: 100%

Anonymous

0
7|1

55
3

05 апр 2014, 09:19

Anonymous Перейти к последнему сообщению

В этой теме нет новых непрочитанных сообщений. Скачать торрент Проверен Rammstein: Videos 1995-2012 [2012, Industrial , BDRip (720p)]

в форуме Концерты (HD-Video), Размер: 21.24 ГБ, Здоровье: 100%

Гость

0
56|37

778
11

26 апр 2015, 22:42

Гость Перейти к последнему сообщению

В этой теме нет новых непрочитанных сообщений. Скачать торрент Проверен [iPad] 2012 / 2012 (Роланд Эммерих / Roland Emmerich) [2009, фантастика, боевик, приключения, BDRip, 720p]

в форуме Фильмы для iPod, iPhone, iPad, Размер: 4.31 ГБ, Здоровье: 100%

Гость

0
5|1

31
0

11 май 2015, 01:37

Гость Перейти к последнему сообщению

В этой теме нет новых непрочитанных сообщений. Скачать торрент Рассказы (2012) BDRip 720p

в форуме 720p | 1080p, Размер: 2.91 ГБ, Здоровье: 100%

Anonymous

0
46|0

22
10

20 фев 2014, 22:29

Anonymous Перейти к последнему сообщению



Сейчас этот форум просматривают: нет зарегистрированных пользователей и гости: 1


Вы не можете начинать темы
Вы не можете отвечать на сообщения
Вы не можете редактировать свои сообщения
Вы не можете удалять свои сообщения
Вы не можете добавлять вложения

Перейти:  

!ВНИМАНИЕ!
 Ресурс не предоставляет электронные версии произведений, а занимается лишь коллекционированием и каталогизацией ссылок, присылаемых и публикуемых на форуме нашими читателями. Если вы являетесь правообладателем какого-либо представленного материала и не желаете чтобы ссылка на него находилась в нашем каталоге, свяжитесь с нами и мы незамедлительно удалим её. Файлы для обмена на трекере предоставлены пользователями сайта, и администрация не несёт ответственности за их содержание. Просьба не заливать файлы, защищенные авторскими правами, а также файлы нелегального содержания!