На всех торрентах на трекере установлена скидка на скачивание в размере 100 процентов(а).
 Возможность скачивания торрента НЕ зависит от ограничений при низком ратио, низком аплоаде, требуемом ратио или требуемом аплоаде.


Начать новую тему Ответить на тему
Статистика раздачи
Размер: 8.74 ГБ | Добавлен: 08 янв 2015, 00:53 | Скачали: 89
Сидеров: 12  [0 байт/сек]    Личеров: 5  [0 байт/сек]
Пред. тема | След. тема 

Автор
Сообщение

СообщениеДобавлено: 08 янв 2015, 00:53 

Название: Роман с камнем и Жемчужина Нила
Оригинальное название: Romancing the Stone & The Jewel of the Nile
Год выхода: 1984 | 1985
Жанр: Комедия, мелодрама, приключения
Режиссер: Роберт Земекис, Льюис Тиг
Продолжительность: 01:45:46 | 01:45:55
Релиз Группа | Автор Рипа:

#777Информация о фильме
Название: Роман с камнем
Оригинальное название: Romancing the Stone
Год выхода: 1984
Жанр: Комедия, мелодрама, приключения
Режиссер: Роберт Земекис
В ролях: Майкл Дуглас, Кэтлин Тернер, Дени ДеВито, Зак Норман, Альфонсо Арау, Мануэль Охеда

Сюжет фильма
Джоан Уайлдер, автор популярных женских романов, находит в своем почтовом ящике пакет из Колумбии, от своей сестры. Телефонный звонок, подтверждает самые страшные опасения - сестра похищена, и похитители требуют вернуть пакет.
Забыв обо всем на свете, Джоан летит на помощь сестре, и теряется в первые часы после прилета. Ее пытаются убить, и только вмешательство Джека Колтона, американского наемника спасет девушку от гибели.
Вместе их ждут экстремальные приключения в джунглях, поиск сокровищ и конечно романтическая любовная история.

Выпущено: США | Мексика
Продолжительность: 01:45:46
Перевод: Многоголосый закадровый
Субтитры: Русские | Полные

Файл
Качество: BDRip 720p (DVD5) (исходник Blu-Ray)
Видео: 1280x544, 5463 Кбит/сек, 23,976 кадр/сек, AVC, x264, High@L4.1, 2.35:1, 0.327 Бит/[Пиксели*Кадры], 2pass
Аудио: AC-3, 448 Кбит/сек, 6 канала(ов), 48,0 КГц
Чаптеры: Есть





Format : Matroska
Format version : Version 4 / Version 2
File size : 4.37 GiB
Duration : 1h 45mn
Overall bit rate : 5 912 Kbps
Movie name : Роман с камнем.(1984).BDRip.720p.(DVD5).[NoLimits-Team]
Encoded date : UTC 2013-03-18 17:32:00
Writing application : mkvmerge v6.0.0 ('Coming Up For Air') built on Jan 20 2013 09:52:00
Writing library : libebml v1.3.0 + libmatroska v1.4.0

Video
ID : 1
Format : AVC
Format/Info : Advanced Video Codec
Format profile : High@L4.1
Format settings, CABAC : Yes
Format settings, ReFrames : 12 frames
Codec ID : V_MPEG4/ISO/AVC
Duration : 1h 45mn
Bit rate : 5 463 Kbps
Width : 1 280 pixels
Height : 544 pixels
Display aspect ratio : 2.35:1
Frame rate mode : Constant
Frame rate : 23.976 fps
Color space : YUV
Chroma subsampling : 4:2:0
Bit depth : 8 bits
Scan type : Progressive
Bits/(Pixel*Frame) : 0.327
Stream size : 3.95 GiB (90%)
Title : Роман с камнем.(1984).BDRip.720p.(DVD5).[NoLimits-Team]
Writing library : x264 core 129 r2245 bc13772
Encoding settings : cabac=1 / ref=12 / deblock=1:0:0 / analyse=0x3:0x133 / me=umh / subme=11 / psy=1 / psy_rd=1.00:0.00 / mixed_ref=1 / me_range=64 / chroma_me=1 / trellis=2 / 8x8dct=1 / cqm=0 / deadzone=21,11 / fast_pskip=0 / chroma_qp_offset=-2 / threads=9 / lookahead_threads=1 / sliced_threads=0 / nr=0 / decimate=1 / interlaced=0 / bluray_compat=0 / constrained_intra=0 / bframes=14 / b_pyramid=2 / b_adapt=2 / b_bias=0 / direct=3 / weightb=1 / open_gop=0 / weightp=2 / keyint=240 / keyint_min=23 / scenecut=40 / intra_refresh=0 / rc_lookahead=60 / rc=2pass / mbtree=1 / bitrate=5463 / ratetol=1.0 / qcomp=0.60 / qpmin=0 / qpmax=69 / qpstep=4 / cplxblur=20.0 / qblur=0.5 / ip_ratio=1.40 / aq=1:1.00
Language : English
Default : Yes
Forced : No

Audio
ID : 2
Format : AC-3
Format/Info : Audio Coding 3
Mode extension : CM (complete main)
Format settings, Endianness : Big
Codec ID : A_AC3
Duration : 1h 45mn
Bit rate mode : Constant
Bit rate : 448 Kbps
Channel(s) : 6 channels
Channel positions : Front: L C R, Side: L R, LFE
Sampling rate : 48.0 KHz
Bit depth : 16 bits
Compression mode : Lossy
Stream size : 339 MiB (8%)
Title : Многоголосый закадровый
Language : Russian
Default : Yes
Forced : No

Text
ID : 3
Format : UTF-8
Codec ID : S_TEXT/UTF8
Codec ID/Info : UTF-8 Plain Text
Title : Русские (полные)
Language : Russian
Default : No
Forced : No

Menu
00:00:00.000 : :Chapter 01
00:00:51.384 : :Chapter 02
00:07:45.882 : :Chapter 03
00:12:32.376 : :Chapter 04
00:17:42.561 : :Chapter 05
00:24:38.310 : :Chapter 06
00:28:01.388 : :Chapter 07
00:33:35.388 : :Chapter 08
00:41:54.136 : :Chapter 09
00:46:58.106 : :Chapter 10
00:49:40.352 : :Chapter 11
00:54:15.168 : :Chapter 12
01:00:42.639 : :Chapter 13
01:05:34.847 : :Chapter 14
01:08:15.800 : :Chapter 15
01:14:39.433 : :Chapter 16
01:16:59.031 : :Chapter 17
01:20:15.811 : :Chapter 18
01:24:35.862 : :Chapter 19
01:26:09.789 : :Chapter 20
01:30:39.183 : :Chapter 21
01:35:47.992 : :Chapter 22
01:40:14.675 : :Chapter 23
01:42:43.365 : :Chapter 24

#777Информация о фильме
Название: Жемчужина Нила
Оригинальное название: The Jewel of the Nile
Год выхода: 1985
Жанр: Комедия, мелодрама, приключения
Режиссер: Льюис Тиг
В ролях: Майкл Дуглас, Кэтлин Тернер, Дэнни Де Вито, Спирос Фокас, Эвнер Айзенберг, Пол Дэвид Маджид

Сюжет фильма
Герои предыдущей части Джэк и Джоан живут спокойной, размеренной жизнью богатых бездельников. У них есть все, что могут позволить деньги: яхта, виллы, прислуга. Но им скучно.
Скучно друг с другом, и этим обществом. Что бы развлечь себя, Джоан принимает приглашение арабского шейха посетить его восточную резиденцию. Но сказка обернулась кошмаром, арабский красавец похищает Джоан, и требует выкуп - «жемчужину».
Джэк, заручившись поддержкой, своего нового партнера Ральфа, принимает непростое решение, спасти Джоан. Но есть одно осложнение, Джэку хочет отомстить старый напарник.

Выпущено: США
Продолжительность: 01:45:55
Перевод: Многоголосый закадровый
Субтитры: Русские | Полные

Файл
Качество: BDRip 720p (DVD5) (исходник Blu-Ray)
Видео: 1280x544, 5454 Кбит/сек, 23,976 кадр/сек, AVC, x264, High@L4.1, 2.35:1, 0.327 Бит/[Пиксели*Кадры], 2pass
Аудио: AC-3, 448 Кбит/сек, 6 канала(ов), 48,0 КГц
Чаптеры: Есть





Format : Matroska
Format version : Version 4 / Version 2
File size : 4.37 GiB
Duration : 1h 45mn
Overall bit rate : 5 904 Kbps
Movie name : Жемчужина Нила.(1985).BDRip.720p.(DVD5).[NoLimits-Team]
Encoded date : UTC 2013-03-24 09:23:43
Writing application : mkvmerge v6.0.0 ('Coming Up For Air') built on Jan 20 2013 09:52:00
Writing library : libebml v1.3.0 + libmatroska v1.4.0

Video
ID : 1
Format : AVC
Format/Info : Advanced Video Codec
Format profile : High@L4.1
Format settings, CABAC : Yes
Format settings, ReFrames : 12 frames
Codec ID : V_MPEG4/ISO/AVC
Duration : 1h 45mn
Bit rate : 5 454 Kbps
Width : 1 280 pixels
Height : 544 pixels
Display aspect ratio : 2.35:1
Frame rate mode : Constant
Frame rate : 23.976 fps
Color space : YUV
Chroma subsampling : 4:2:0
Bit depth : 8 bits
Scan type : Progressive
Bits/(Pixel*Frame) : 0.327
Stream size : 3.95 GiB (90%)
Title : Жемчужина Нила.(1985).BDRip.720p.(DVD5).[NoLimits-Team]
Writing library : x264 core 130 r2273 b3065e6
Encoding settings : cabac=1 / ref=12 / deblock=1:0:0 / analyse=0x3:0x133 / me=umh / subme=11 / psy=1 / psy_rd=1.00:0.00 / mixed_ref=1 / me_range=64 / chroma_me=1 / trellis=2 / 8x8dct=1 / cqm=0 / deadzone=21,11 / fast_pskip=0 / chroma_qp_offset=-2 / threads=9 / lookahead_threads=2 / sliced_threads=0 / nr=0 / decimate=1 / interlaced=0 / bluray_compat=0 / constrained_intra=0 / bframes=14 / b_pyramid=2 / b_adapt=2 / b_bias=0 / direct=3 / weightb=1 / open_gop=0 / weightp=2 / keyint=240 / keyint_min=23 / scenecut=40 / intra_refresh=0 / rc_lookahead=60 / rc=2pass / mbtree=1 / bitrate=5454 / ratetol=1.0 / qcomp=0.60 / qpmin=0 / qpmax=69 / qpstep=4 / cplxblur=20.0 / qblur=0.5 / ip_ratio=1.40 / aq=1:1.00
Language : English
Default : Yes
Forced : No

Audio
ID : 2
Format : AC-3
Format/Info : Audio Coding 3
Mode extension : CM (complete main)
Format settings, Endianness : Big
Codec ID : A_AC3
Duration : 1h 45mn
Bit rate mode : Constant
Bit rate : 448 Kbps
Channel(s) : 6 channels
Channel positions : Front: L C R, Side: L R, LFE
Sampling rate : 48.0 KHz
Bit depth : 16 bits
Compression mode : Lossy
Stream size : 339 MiB (8%)
Title : Многоголосый закадровый
Language : Russian
Default : Yes
Forced : No

Text
ID : 3
Format : UTF-8
Codec ID : S_TEXT/UTF8
Codec ID/Info : UTF-8 Plain Text
Title : Русские (полные)
Language : Russian
Default : No
Forced : No

Menu
00:00:00.000 : :Chapter 01
00:03:45.850 : :Chapter 02
00:08:14.285 : :Chapter 03
00:11:29.647 : :Chapter 04
00:16:04.421 : :Chapter 05
00:19:49.313 : :Chapter 06
00:23:49.386 : :Chapter 07
00:24:51.114 : :Chapter 08
00:27:00.243 : :Chapter 09
00:30:28.743 : :Chapter 10
00:37:11.938 : :Chapter 11
00:44:10.105 : :Chapter 12
00:52:47.789 : :Chapter 13
00:57:11.344 : :Chapter 14
01:02:17.400 : :Chapter 15
01:08:43.828 : :Chapter 16
01:10:49.954 : :Chapter 17
01:13:52.928 : :Chapter 18
01:16:17.072 : :Chapter 19
01:23:58.199 : :Chapter 20
01:26:23.136 : :Chapter 21
01:29:59.685 : :Chapter 22
01:34:14.315 : :Chapter 23
01:40:56.717 : :Chapter 24
01:45:54.431 : :Chapter 25

#777
загрузка...
Правила, инструкции, FAQ!!!
Торрент  Добавлен [08 янв 2015, 00:53] Скачать торрент
Скачать торрент
[ Размер 22.68 КБ / Просмотров 5 ]

Статус
Проверен 
 
Размер  8.74 ГБ
Приватный: Нет (DHT включён)
.torrent скачан  89
Как залить торрент? | Как скачать Torrent? | Как смотреть и слушать онлайн?  


     Отправить личное сообщение
   
Страница 1 из 1
Показать сообщения за:  Поле сортировки  
Начать новую тему Ответить на тему

   Похожие торренты   Автор   Ответы   Просмотры   Последнее сообщение 
В этой теме нет новых непрочитанных сообщений. Скачать торрент Жемчужина Нила / The Jewel of the Nile (1985) BDRip

в форуме Приключения, Размер: 2.18 ГБ, Здоровье: 100%

Anonymous

0
11|4

67
197

12 дек 2013, 08:45

Anonymous Перейти к последнему сообщению

В этой теме нет новых непрочитанных сообщений. Скачать торрент Проверен Жемчужина Нила / The Jewel Of The Nile (1985) BDRip 1080p | P, P2, A

в форуме 720p | 1080p, Размер: 12.82 ГБ, Здоровье: 100%

Гость

0
6|1

27
74

08 янв 2015, 00:50

Гость Перейти к последнему сообщению

В этой теме нет новых непрочитанных сообщений. Скачать торрент Проверен Френсис Эдгар - Роман с камнем 02, Жемчужина Нила [Юрова Лариса, 2016 г., 96 kbps, MP3]

в форуме Детектив и Боевики, Размер: 329.29 МБ, Здоровье: 0%

Anonymous

0
0|0

0
0

20 ноя 2016, 12:45

Anonymous Перейти к последнему сообщению

В этой теме нет новых непрочитанных сообщений. Скачать торрент Проверен (Blues / Harp) Sons Of Blues - Chi-town Hustlers [Romancing the Blue Stone] - 1993 (1985), FLAC (tracks+.cue), lossless

в форуме Blues (Texas, Chicago, Modern and Others), Размер: 285.01 МБ, Здоровье: 0%

Anonymous

0
0|0

0
0

15 окт 2016, 18:59

Anonymous Перейти к последнему сообщению

В этой теме нет новых непрочитанных сообщений. Скачать торрент Проверен (Heavy Metal/Power) Necromancing The Stone - Jewel Of The Vile - 2016, MP3, 320 kbps

в форуме Heavy, Power, Progressive (Metal), Размер: 125.49 МБ, Здоровье: 0%

Anonymous

0
0|0

1
0

09 окт 2016, 21:11

Anonymous Перейти к последнему сообщению



Сейчас этот форум просматривают: нет зарегистрированных пользователей и гости: 1


Вы не можете начинать темы
Вы не можете отвечать на сообщения
Вы не можете редактировать свои сообщения
Вы не можете удалять свои сообщения
Вы не можете добавлять вложения

Перейти:  

!ВНИМАНИЕ!
 Ресурс не предоставляет электронные версии произведений, а занимается лишь коллекционированием и каталогизацией ссылок, присылаемых и публикуемых на форуме нашими читателями. Если вы являетесь правообладателем какого-либо представленного материала и не желаете чтобы ссылка на него находилась в нашем каталоге, свяжитесь с нами и мы незамедлительно удалим её. Файлы для обмена на трекере предоставлены пользователями сайта, и администрация не несёт ответственности за их содержание. Просьба не заливать файлы, защищенные авторскими правами, а также файлы нелегального содержания!