На всех торрентах на трекере установлена скидка на скачивание в размере 100 процентов(а).
 Возможность скачивания торрента НЕ зависит от ограничений при низком ратио, низком аплоаде, требуемом ратио или требуемом аплоаде.


Начать новую тему Ответить на тему
Статистика раздачи
Размер: 6.8 ГБ | Добавлен: 07 янв 2015, 19:38 | Скачали: 4
Сидеров: 675  [0 байт/сек]    Личеров: 57  [0 байт/сек]
Пред. тема | След. тема 

Автор
Сообщение

СообщениеДобавлено: 07 янв 2015, 19:38 

Производство: США, Bellanova Films, Ugly Duckling Films
Жанр: Фантастика, Триллер
Перевод: Одноголосый закадровый, любительский [lord666]
Субтитры: Вшитые (отключаемые)
Язык субтитров: Английские

Дата мировой премьеры: 19 сентября 2013
Дата российской премьеры: 5 марта 2015

Режиссер: Джеймс Уорд Биркит
Продюсер: Лене Босейджер
Актеры: Эмили Бальдони, Мори Стерлинг, Николас Брендон, Элизабет Грэйсен, Алекс Манугян, Лорен Мехер, Хьюго Армстронг, Лорин Скафария

Описание фильма:
Появление несколько лет назад в небе необычно яркой кометы сопровождалось множеством свидетельств о необычных и даже мистических событиях, происходивших по всей Земле. Именно рассказы об этих странных происшествиях становятся главной темой разговоров для восьми друзей, собравшихся на званый ужин. Герои фильма еще не знают, что этим вечером, когда над их головами пройдет еще одна загадочная комета, они сами станут свидетелями удивительных физических аномалий, ставящих под сомнения все наши научные представления о вселенной...



Продолжительность: 01:27:52
Качество видео: BDRip

Видеокодек: MPEG-4 AVC/H.264
Битрейт видео: ~8 957 Кбит/с
Размер кадра: 1920х816

Аудио1: Русский (AC3, 6 ch, 384 Кбит/с
Аудио3: Английский DTS, 6 ch, 1510 Кбит/с

Сэмпл: Скачать
General
Complete name : O:\Coherence.2013.BDRip.1080p.mkv
Format : Matroska
File size : 6.80 GiB
Duration : 1h 27mn
Overall bit rate : 11.1 Mbps
Encoded date : UTC 2014-11-05 21:47:36
Writing application : mkvmerge v7.3.0 ('Nouages') 64bit built on Oct 22 2014 18:53:34
Writing library : libebml v1.3.0 + libmatroska v1.4.1

Video
ID : 1
Format : AVC
Format/Info : Advanced Video Codec
Format profile :
Format settings, CABAC : Yes
Format settings, ReFrames : 5 frames
Muxing mode : Container profile=Unknown@4.1
Codec ID : V_MPEG4/ISO/AVC
Duration : 1h 27mn
Bit rate : 8 957 Kbps
Nominal bit rate : 9 176 Kbps
Width : 1 920 pixels
Height : 816 pixels
Display aspect ratio : 2.35:1
Frame rate : 24.000 fps
Resolution : 8 bits
Colorimetry : 4:2:0
Scan type : Progressive
Bits/(Pixel*Frame) : 0.238
Stream size : 5.50 GiB (81%)
Writing library : x264 core 142 r2453kMod ea0ca51
Encoding settings : cabac=1 / ref=5 / deblock=1:0:0 / analyse=0x3:0x133 / me=umh / subme=7 / psy=1 / fade_compensate=0.00 / psy_rd=1.00:0.00 / mixed_ref=1 / me_range=16 / chroma_me=1 / trellis=1 / 8x8dct=1 / cqm=0 / deadzone=21,11 / fast_pskip=0 / chroma_qp_offset=-2 / threads=6 / lookahead_threads=1 / sliced_threads=0 / nr=0 / decimate=1 / interlaced=0 / bluray_compat=0 / constrained_intra=0 / fgo=0 / bframes=3 / b_pyramid=2 / b_adapt=2 / b_bias=0 / direct=3 / weightb=1 / open_gop=0 / weightp=2 / keyint=250 / keyint_min=24 / scenecut=40 / intra_refresh=0 / rc_lookahead=50 / rc=2pass / mbtree=1 / bitrate=9176 / ratetol=1.0 / qcomp=0.60 / qpmin=0 / qpmax=69 / qpstep=4 / cplxblur=20.0 / qblur=0.5 / ip_ratio=1.40 / aq=1:1.00

Audio #1
ID : 2
Format : AC-3
Format/Info : Audio Coding 3
Codec ID : A_AC3
Duration : 1h 27mn
Bit rate mode : Constant
Bit rate : 384 Kbps
Channel(s) : 6 channels
Channel positions : Front: L C R, Surround: L R, LFE
Sampling rate : 48.0 KHz
Stream size : 241 MiB (3%)
Title : lord666
Language : Russian

Audio #2
ID : 3
Format : DTS
Format/Info : Digital Theater Systems
Codec ID : A_DTS
Duration : 1h 27mn
Bit rate mode : Constant
Bit rate : 1 510 Kbps
Channel(s) : 6 channels
Channel positions : Front: L C R, Surround: L R, LFE
Sampling rate : 48.0 KHz
Resolution : 24 bits
Stream size : 949 MiB (14%)

Text #1
ID : 5
Format : UTF-8
Codec ID : S_TEXT/UTF8
Codec ID/Info : UTF-8 Plain Text

Скриншоты:

загрузка...
Правила, инструкции, FAQ!!!
Торрент  Добавлен [07 янв 2015, 19:38] Скачать торрент
Скачать торрент
[ Размер 34.66 КБ / Просмотров 18 ]

Статус
Проверен 
 
Размер  6.8 ГБ
Приватный: Нет (DHT включён)
.torrent скачан  4
Как залить торрент? | Как скачать Torrent? | Как смотреть и слушать онлайн?  


     Отправить личное сообщение
   
Страница 1 из 1
Показать сообщения за:  Поле сортировки  
Начать новую тему Ответить на тему

   Похожие торренты   Автор   Ответы   Просмотры   Последнее сообщение 
В этой теме нет новых непрочитанных сообщений. Скачать торрент Проверен Связь / Coherence (2013) HDRip [VO]

в форуме Фантастика, Фэнтези, Размер: 1.46 ГБ, Здоровье: 100%

Гость

0
64|0

80
0

07 янв 2015, 19:41

Гость Перейти к последнему сообщению

В этой теме нет новых непрочитанных сообщений. Скачать торрент Проверен Seovic A., Falco M., Peralta P. - Oracle Coherence 3.5 [2010, PDF, ENG]

в форуме Веб-дизайн и программирование, Размер: 9.46 МБ, Здоровье: 0%

Anonymous

0
0|0

6
0

22 окт 2016, 01:18

Anonymous Перейти к последнему сообщению

В этой теме нет новых непрочитанных сообщений. Скачать торрент Проверен Feuertanz Festival 2013 [2013, Folk Rock/Metal, BDRip 1080p]

в форуме Концерты (HD-Video), Размер: 9.84 ГБ, Здоровье: 100%

Anonymous

0
2|1

0
0

23 окт 2016, 13:38

Anonymous Перейти к последнему сообщению

В этой теме нет новых непрочитанных сообщений. Скачать торрент Проверен Mylene Farmer - Timeless 2013 Le Film (2013) BDRip 1080p

в форуме Концерты (HD-Video), Размер: 11.68 ГБ, Здоровье: 100%

Anonymous

0
25|2

135
46

19 май 2014, 18:48

Anonymous Перейти к последнему сообщению

В этой теме нет новых непрочитанных сообщений. Скачать торрент Проверен Megadeth - Countdown To Extinction - Live 2013 [2013, Thrash Metal, BDRip 1080p]

в форуме Концерты (HD-Video), Размер: 9.03 ГБ, Здоровье: 100%

Anonymous

0
9|3

3
1

23 окт 2016, 18:43

Anonymous Перейти к последнему сообщению



Сейчас этот форум просматривают: нет зарегистрированных пользователей и гости: 1


Вы не можете начинать темы
Вы не можете отвечать на сообщения
Вы не можете редактировать свои сообщения
Вы не можете удалять свои сообщения
Вы не можете добавлять вложения

Перейти:  

!ВНИМАНИЕ!
 Ресурс не предоставляет электронные версии произведений, а занимается лишь коллекционированием и каталогизацией ссылок, присылаемых и публикуемых на форуме нашими читателями. Если вы являетесь правообладателем какого-либо представленного материала и не желаете чтобы ссылка на него находилась в нашем каталоге, свяжитесь с нами и мы незамедлительно удалим её. Файлы для обмена на трекере предоставлены пользователями сайта, и администрация не несёт ответственности за их содержание. Просьба не заливать файлы, защищенные авторскими правами, а также файлы нелегального содержания!