На всех торрентах на трекере установлена скидка на скачивание в размере 100 процентов(а).
 Возможность скачивания торрента НЕ зависит от ограничений при низком ратио, низком аплоаде, требуемом ратио или требуемом аплоаде.


Начать новую тему Ответить на тему
Статистика раздачи
Размер: 3.83 ГБ | Добавлен: 07 янв 2015, 12:07 | Скачали: 0
Сидеров: 34  [0 байт/сек]    Личеров: 6  [0 байт/сек]
Пред. тема | След. тема 

Автор
Сообщение

СообщениеДобавлено: 07 янв 2015, 12:07 

Жанр: Фэнтези, комедия, экранизация, семейный
Выпущено: США, Tri-Star Pictures

Описание фильма:
Экранизация по произведению Роальда Даля.
Матильда - очень необычная девочка. Ну посудите сами - умножать в голове огромные цифры, двигать взглядом предметы, и делать еще много чего сверхъестественного - это что, по-вашему, нормально? Но ее родители равнодушны к ней - их не только не поражают способности Матильды, им даже не интересно как живет их дочь.
Все, чего хотят «сердобольные» мама с папой - избавиться от нее. Так они и поступают - отправляют девочку в интернат. Вот там-то Матильда и начинает давать волю своим поразительным талантам. А умеет она выкидывать такие номера, что поверьте, мало не покажется.

Режиссер: Дэнни ДеВито
Актеры: Мара Уилсон, Дэнни ДеВито, Ри Перлман, Эмбет Дэвидц, Пэм Феррис, Пол Рубенс, Трейси Уолтер, Брайан Левинсон, Жан Спигл Ховард, Сара Магдалин

Продолжительность: 01:38:07
Перевод: Дублированный, профессиональный многоголосый, авторский



Видеокодек: MPEG-4 AVC/H.264
Битрейт видео: ~4000 Кбит/сек
Размер кадра: 1280 x 542
Качество видео: WEB-DL
Аудио#1: Русский, 48 kHz, AC3, 3/2 (L,C,R,l,r) + LFE ch, ~384.00 kbps avg | Дубляж, R5
Аудио#2: Русский, 48 kHz, AC3, 2/0 (L,R) ch, ~192.00 kbps avg | Многоголосый закадровый, R5
Аудио#3: Русский, 48 kHz, AC3, 2/0 (L,R) ch, ~256.00 kbps avg | Л. Володарский
Аудио#4: Русский, 48 kHz, AC3, 2/0 (L,R)ch, ~192.00 kbps avg | С. Кузнецов
Аудио#5: Английский, 48 kHz, AC3, 3/2 (L,C,R,l,r) + LFE ch, ~384.00 kbps avg
Субтитры: Русские, Английские (DVD R5 + iTunes)
- Сатурн, 1997 год
Номинация:
- Лучший молодой актер/актриса (Мара Уилсон)
Общее
Уникальный идентификатор : 182244917390036659844714380950044923838 (0x891B18281156732D928CEB8BB14BD7BE)
Полное имя : Matilda.1996.720p.WEB-DL.4xRus.Eng.mkv
Формат : Matroska
Версия формата : Version 2
Размер файла : 3,83 Гбайт
Продолжительность : 1 ч. 38 м.
Общий поток : 5583 Кбит/сек
Название фильма : Matilda (1996) - Release for HDClub by vlaluk
Дата кодирования : UTC 2012-11-22 13:21:00
Программа кодирования : mkvmerge v5.8.0 ('No Sleep / Pillow') built on Sep 2 2012 15:37:04
Библиотека кодирования : libebml v1.2.3 + libmatroska v1.3.0

Видео
Идентификатор : 1
Формат : AVC
Формат/Информация : Advanced Video Codec
Профиль формата :
Параметр CABAC формата : Нет
Параметр ReFrames формата : 2 кадра
Идентификатор кодека : V_MPEG4/ISO/AVC
Продолжительность : 1 ч. 38 м.
Битрейт : 4064 Кбит/сек
Ширина : 1280 пикселей
Высота : 542 пикселя
Соотношение сторон : 2,35:1
Режим частоты кадров : Постоянный
Частота кадров : 23,976 кадра/сек
Цветовое пространство : YUV
Субдискретизация насыщенности : 4:2:0
Битовая глубина : 8 бит
Тип развёртки : Прогрессивная
Бит/(Пиксели*Кадры) : 0.244
Размер потока : 2,79 Гбайт (73%)
Заголовок : Matilda (1996) - Release for HDClub by vlaluk
Язык : English
Default : Да
Forced : Нет
Основные цвета : BT.709
Характеристики трансфера : BT.709
Коэффициенты матрицы : BT.709
colour_range : Limited

Аудио #1
Идентификатор : 2
Формат : AC-3
Формат/Информация : Audio Coding 3
Расширение режима : CM (complete main)
Параметр Endianness формата : Big
Идентификатор кодека : A_AC3
Продолжительность : 1 ч. 38 м.
Вид битрейта : Постоянный
Битрейт : 384 Кбит/сек
Каналы : 6 каналов
Расположение каналов : Front: L C R, Side: L R, LFE
Частота : 48,0 КГц
Битовая глубина : 16 бит
Метод сжатия : С потерями
Размер потока : 270 Мбайт (7%)
Заголовок : DD 5.1 @ 384 kbps @ Дубляж
Язык : Russian
Default : Да
Forced : Нет

Аудио #2
Идентификатор : 3
Формат : AC-3
Формат/Информация : Audio Coding 3
Профиль формата : Dolby Digital
Расширение режима : CM (complete main)
Параметр Endianness формата : Big
Идентификатор кодека : A_AC3
Продолжительность : 1 ч. 38 м.
Вид битрейта : Постоянный
Битрейт : 192 Кбит/сек
Каналы : 2 канала
Расположение каналов : Front: L R
Частота : 48,0 КГц
Битовая глубина : 16 бит
Метод сжатия : С потерями
Размер потока : 135 Мбайт (3%)
Заголовок : DD 2.0 @ 192 kbps @ Многоголосый закадровый
Язык : Russian
Default : Нет
Forced : Нет

Аудио #3
Идентификатор : 4
Формат : AC-3
Формат/Информация : Audio Coding 3
Расширение режима : CM (complete main)
Параметр Endianness формата : Big
Идентификатор кодека : A_AC3
Продолжительность : 1 ч. 38 м.
Вид битрейта : Постоянный
Битрейт : 256 Кбит/сек
Каналы : 2 канала
Расположение каналов : Front: L R
Частота : 48,0 КГц
Битовая глубина : 16 бит
Метод сжатия : С потерями
Размер потока : 180 Мбайт (5%)
Заголовок : DD 2.0 @ 256 kbps @ Володарский
Язык : Russian
Default : Нет
Forced : Нет

Аудио #4
Идентификатор : 5
Формат : AC-3
Формат/Информация : Audio Coding 3
Расширение режима : CM (complete main)
Параметр Endianness формата : Big
Идентификатор кодека : A_AC3
Продолжительность : 1 ч. 38 м.
Вид битрейта : Постоянный
Битрейт : 192 Кбит/сек
Каналы : 2 канала
Расположение каналов : Front: L R
Частота : 48,0 КГц
Битовая глубина : 16 бит
Метод сжатия : С потерями
Размер потока : 135 Мбайт (3%)
Заголовок : DD 2.0 @ 192 kbps @ С.Кузнецов
Язык : Russian
Default : Нет
Forced : Нет

Аудио #5
Идентификатор : 6
Формат : AC-3
Формат/Информация : Audio Coding 3
Расширение режима : CM (complete main)
Параметр Endianness формата : Big
Идентификатор кодека : A_AC3
Продолжительность : 1 ч. 38 м.
Вид битрейта : Постоянный
Битрейт : 384 Кбит/сек
Каналы : 6 каналов
Расположение каналов : Front: L C R, Side: L R, LFE
Частота : 48,0 КГц
Битовая глубина : 16 бит
Метод сжатия : С потерями
Размер потока : 270 Мбайт (7%)
Заголовок : DD 5.1 @ 384 kbps
Язык : English
Default : Нет
Forced : Нет

Текст #1
Идентификатор : 7
Формат : UTF-8
Идентификатор кодека : S_TEXT/UTF8
Идентификатор кодека/Информация : UTF-8 Plain Text
Заголовок : Russian @ SRT
Язык : Russian
Default : Нет
Forced : Нет

Текст #2
Идентификатор : 8
Формат : UTF-8
Идентификатор кодека : S_TEXT/UTF8
Идентификатор кодека/Информация : UTF-8 Plain Text
Заголовок : English @ SRT @ From DVD
Язык : English
Default : Нет
Forced : Нет

Текст #3
Идентификатор : 9
Формат : UTF-8
Идентификатор кодека : S_TEXT/UTF8
Идентификатор кодека/Информация : UTF-8 Plain Text
Заголовок : English @ SRT @ iTunes
Язык : English
Default : Нет
Forced : Нет

Меню
00:00:00.000 : en:START
00:01:53.000 : en:A RATHER EXTRAORDINARY CHILD
00:03:11.000 : en:"SEND ME ON MY WAY"
00:05:03.000 : en:IN SEARCH OF A BOOK
00:08:47.000 : en:HER FIRST PRACTICAL ADVICE
00:10:52.000 : en:HAIR TONIC
00:14:34.000 : en:WORMWOOD MOTORS
00:17:24.000 : en:CAFE LE RITZ
00:19:25.000 : en:THE MILLION DOLLAR STICKY
00:22:57.000 : en:CRUNCHEM HALL
00:26:04.000 : en:AMANDA THRIPP
00:27:48.000 : en:MISS HONEY
00:34:05.000 : en:MISS HONEY PAYS A VISIT
00:37:12.000 : en:BRUCE BOGTROTTER
00:45:45.000 : en:THE NEWT
00:53:32.000 : en:MISS HONEY'S STORY
00:56:44.000 : en:AFRAID OF BLACK CATS
00:58:14.000 : en:"LET'S GO GET YOUR DOLL"
01:01:51.000 : en:THE CHASE
01:09:37.000 : en:"LITTLE BITTY PRETTY ONE"
01:13:04.000 : en:LISSY DOLL
01:15:21.000 : en:TERRIFYING MISS
01:19:13.000 : en:NO MORE MISS NICE GIRL
01:21:12.000 : en:"A CHILD WAS IN MY HOUSE!"
01:23:34.000 : en:HAUNTED CHALKBOARD
01:25:31.000 : en:TRUNCHBULL GOES FOR A SPIN
01:26:45.000 : en:PELTING THE TRUNCHBULL
01:28:25.000 : en:ADOPTING MATILDA
Скриншоты:
[center]
загрузка...
Правила, инструкции, FAQ!!!
Торрент  Добавлен [07 янв 2015, 12:07] Скачать торрент
Скачать торрент
[ Размер 19.82 КБ / Просмотров 9 ]

Статус
Проверен 
 
Размер  3.83 ГБ
Приватный: Нет (DHT включён)
.torrent скачан  0
Как залить торрент? | Как скачать Torrent? | Как смотреть и слушать онлайн?  


     Отправить личное сообщение
   
Страница 1 из 1
Показать сообщения за:  Поле сортировки  
Начать новую тему Ответить на тему

   Похожие торренты   Автор   Ответы   Просмотры   Последнее сообщение 
В этой теме нет новых непрочитанных сообщений. Скачать торрент Матильда / Matilda (1996) BDRip

в форуме Детское, Семейное кино, Размер: 1.45 ГБ, Здоровье: 0%

Anonymous

0
0|0

41
1

03 фев 2014, 09:11

Anonymous Перейти к последнему сообщению

В этой теме нет новых непрочитанных сообщений. Скачать торрент Проверен Матильда Серао - Прощай, любовь. Возмездие [1992, PDF, RUS]

в форуме Зарубежная литература (XX и XXI век), Размер: 7.41 МБ, Здоровье: 0%

Anonymous

0
0|0

0
0

08 сен 2016, 18:40

Anonymous Перейти к последнему сообщению

В этой теме нет новых непрочитанных сообщений. Скачать торрент Проверен Roald Dahl/ Роальд Даль - Матильда; Чарли и шоколадная фабрика; Огромный крокодил; Джеймс и чудо персик [2012-2014, PDF, RUS]

в форуме Зарубежная литература (XX и XXI век), Размер: 227.2 МБ, Здоровье: 100%

Anonymous

0
23|7

10
0

08 сен 2016, 20:27

Anonymous Перейти к последнему сообщению

В этой теме нет новых непрочитанных сообщений. Скачать торрент Проверен Мерцающий / The Glimmer Man (1996) HDTVRip [720p]

в форуме 720p | 1080p, Размер: 5.33 ГБ, Здоровье: 100%

Гость

0
45|1

37
0

06 янв 2015, 10:52

Гость Перейти к последнему сообщению

В этой теме нет новых непрочитанных сообщений. Скачать торрент Проверен Флиппер / Flipper (1996) BDRip 720p | P, P2, A

в форуме 720p | 1080p, Размер: 4.36 ГБ, Здоровье: 59%

Anonymous

0
29|49

130
19

26 июл 2015, 22:28

Anonymous Перейти к последнему сообщению



Сейчас этот форум просматривают: нет зарегистрированных пользователей и гости: 2


Вы не можете начинать темы
Вы не можете отвечать на сообщения
Вы не можете редактировать свои сообщения
Вы не можете удалять свои сообщения
Вы не можете добавлять вложения

Перейти:  

!ВНИМАНИЕ!
 Ресурс не предоставляет электронные версии произведений, а занимается лишь коллекционированием и каталогизацией ссылок, присылаемых и публикуемых на форуме нашими читателями. Если вы являетесь правообладателем какого-либо представленного материала и не желаете чтобы ссылка на него находилась в нашем каталоге, свяжитесь с нами и мы незамедлительно удалим её. Файлы для обмена на трекере предоставлены пользователями сайта, и администрация не несёт ответственности за их содержание. Просьба не заливать файлы, защищенные авторскими правами, а также файлы нелегального содержания!