На всех торрентах на трекере установлена скидка на скачивание в размере 100 процентов(а).
 Возможность скачивания торрента НЕ зависит от ограничений при низком ратио, низком аплоаде, требуемом ратио или требуемом аплоаде.


Начать новую тему Ответить на тему
Статистика раздачи
Размер: 9.5 ГБ | Добавлен: 06 янв 2015, 16:38 | Скачали: 0
Сидеров: 0  [0 байт/сек]    Личеров: 16  [0 байт/сек]
Пред. тема | След. тема 

Автор
Сообщение

СообщениеДобавлено: 06 янв 2015, 16:38 

Название: Свяжи меня
Оригинальное название: Átame!
Год выхода: 1989
Жанр: драма, мелодрама, комедия, криминал
Режиссер: Педро Альмодовар
В ролях: Виктория Абриль, Антонио Бандерас, Лолес Леон, Хульета Серрано, Мария Барранко, Росси де Пальма, Франсиско Рабаль, Лола Кардона, Монце Дж. Ромеу, Эмильяно Редондо

О фильме:
Рики только что вышел из тюремной психбольницы. У него есть цель: порнозвезда Марина, с которой когда-то у них был случайный секс. Рики хочет, чтобы Марина стала его женой. А если она откажется, то можно дать ей время подумать, связав тугими веревками...
Одна из самых ярких ролей молодого Антонио Бандераса. Один из самых знаменитых мастеров саундтрека за всю историю кино. Одна из самых убедительных иллюстраций любви, напоминающая нам о том, что любовь имеет право на все. Прочее же, как всегда у педро Альмадовара 80-х: наркотики, богема, криминал... И, конечно же, немного порно.

Страна: Испания
Студия: El Deseo
Продолжительность: 01:42:04.128
Перевод: Профессиональный (многоголосый, закадровый) R5 Кармен Видео
Профессиональный (двухголосый, закадровый)


Кодек: h.264
Качество: BDRip 720p
Видео: 1280x688 (1.85:1), 23.976 fps, AVC, ~11.9 Mbps, 0.561 bits/pixel
Звук:
Русский, 48.0 KHz, AC3, 6 ch, 640 Kbps R5 Кармен Видео*
Русский, 48.0 KHz, AC3, 2 ch, 192 Kbps (двойное моно)
Испанский, 48.0 KHz, AC3, 6 ch, 640 Kbps
*получена наложением чистых голосов переводчиков на центр. канал оригинального трека
Субтитры:
Английские, SRT(UTF-8)
Русские, SRT(UTF-8) (на основе R5)



Общее
Уникальный идентификатор : 198328776525037587047136463695891601036 (0x9534BBA2E50920709DBD45356797168C)
Полное имя : E:FilmsSvjazhi_menja.1989.BDRip720p.US_transfer.mkv
Формат : Matroska
Версия формата : Version 4 / Version 2
Размер файла : 9,50 Гбайт
Продолжительность : 1 ч. 42 м.
Общий поток : 13,3 Мбит/сек
Дата кодирования : UTC 2015-01-06 04:02:09
Программа кодирования : mkvmerge v7.4.0 ('Circles') 64bit built on Dec 12 2014 12:19:56
Библиотека кодирования : libebml v1.3.0 + libmatroska v1.4.1
DURATION : 01:42:04.128000000
NUMBER_OF_FRAMES : 191379
NUMBER_OF_BYTES : 489930240
_STATISTICS_WRITING_APP : mkvmerge v7.4.0 ('Circles') 64bit built on Dec 12 2014 12:19:56
_STATISTICS_WRITING_DATE_UTC : 2015-01-06 04:02:09
_STATISTICS_TAGS : BPS DURATION NUMBER_OF_FRAMES NUMBER_OF_BYTES

Видео
Идентификатор : 1
Формат : AVC
Формат/Информация : Advanced Video Codec
Профиль формата : High@L4.1
Параметр CABAC формата : Да
Параметр ReFrames формата : 9 кадров
Идентификатор кодека : V_MPEG4/ISO/AVC
Продолжительность : 1 ч. 42 м.
Битрейт : 11,9 Мбит/сек
Ширина : 1280 пикселей
Высота : 688 пикселей
Соотношение сторон : 1,85:1
Режим частоты кадров : Постоянный
Частота кадров : 23,976 кадра/сек
Цветовое пространство : YUV
Субдискретизация насыщенности : 4:2:0
Битовая глубина : 8 бит
Тип развёртки : Прогрессивная
Бит/(Пиксели*Кадры) : 0.561
Размер потока : 8,26 Гбайт (87%)
Библиотека кодирования : x264 core 142 r2431 ac76440
Настройки программы : cabac=1 / ref=9 / deblock=1:-3:-3 / analyse=0x3:0x133 / me=umh / subme=10 / psy=1 / psy_rd=1.10:0.10 / mixed_ref=1 / me_range=32 / chroma_me=1 / trellis=2 / 8x8dct=1 / cqm=0 / deadzone=21,11 / fast_pskip=0 / chroma_qp_offset=-3 / threads=8 / lookahead_threads=2 / sliced_threads=0 / nr=0 / decimate=0 / interlaced=0 / bluray_compat=0 / constrained_intra=0 / bframes=14 / b_pyramid=2 / b_adapt=2 / b_bias=0 / direct=3 / weightb=1 / open_gop=0 / weightp=2 / keyint=240 / keyint_min=23 / scenecut=60 / intra_refresh=0 / rc_lookahead=60 / rc=2pass / mbtree=0 / bitrate=11853 / ratetol=1.0 / qcomp=0.60 / qpmin=0 / qpmax=69 / qpstep=4 / cplxblur=20.0 / qblur=0.5 / vbv_maxrate=50000 / vbv_bufsize=62500 / nal_hrd=none / filler=0 / ip_ratio=1.40 / pb_ratio=1.30 / aq=1:1.00
Default : Нет
Forced : Нет
Основные цвета : BT.709
Характеристики трансфера : BT.709
Коэффициенты матрицы : BT.709
colour_range : Limited
DURATION : 01:42:04.077000000
NUMBER_OF_FRAMES : 146831
NUMBER_OF_BYTES : 9072892613
_STATISTICS_WRITING_APP : mkvmerge v7.4.0 ('Circles') 64bit built on Dec 12 2014 12:19:56
_STATISTICS_WRITING_DATE_UTC : 2015-01-06 04:02:09
_STATISTICS_TAGS : BPS DURATION NUMBER_OF_FRAMES NUMBER_OF_BYTES

Аудио #1
Идентификатор : 2
Формат : AC-3
Формат/Информация : Audio Coding 3
Расширение режима : CM (complete main)
Параметр Endianness формата : Big
Идентификатор кодека : A_AC3
Продолжительность : 1 ч. 42 м.
Вид битрейта : Постоянный
Битрейт : 640 Кбит/сек
Каналы : 6 каналов
Расположение каналов : Front: L C R, Side: L R, LFE
Частота : 48,0 КГц
Битовая глубина : 16 бит
Метод сжатия : С потерями
Размер потока : 467 Мбайт (5%)
Заголовок : R5 Karmen Video
Язык : Russian
Default : Да
Forced : Нет

Аудио #2
Идентификатор : 3
Формат : AC-3
Формат/Информация : Audio Coding 3
Расширение режима : CM (complete main)
Параметр Endianness формата : Big
Идентификатор кодека : A_AC3
Продолжительность : 1 ч. 42 м.
Вид битрейта : Постоянный
Битрейт : 192 Кбит/сек
Каналы : 2 канала
Расположение каналов : Front: L R
Частота : 48,0 КГц
Битовая глубина : 16 бит
Метод сжатия : С потерями
Размер потока : 140 Мбайт (1%)
Язык : Russian
Default : Нет
Forced : Нет

Аудио #3
Идентификатор : 4
Формат : AC-3
Формат/Информация : Audio Coding 3
Расширение режима : CM (complete main)
Параметр Endianness формата : Big
Идентификатор кодека : A_AC3
Продолжительность : 1 ч. 42 м.
Вид битрейта : Постоянный
Битрейт : 640 Кбит/сек
Каналы : 6 каналов
Расположение каналов : Front: L C R, Side: L R, LFE
Частота : 48,0 КГц
Битовая глубина : 16 бит
Метод сжатия : С потерями
Размер потока : 467 Мбайт (5%)
Язык : Spanish
Default : Нет
Forced : Нет

Текст #1
Идентификатор : 5
Формат : UTF-8
Идентификатор кодека : S_TEXT/UTF8
Идентификатор кодека/Информация : UTF-8 Plain Text
Язык : English
Default : Нет
Forced : Нет

Текст #2
Идентификатор : 6
Формат : UTF-8
Идентификатор кодека : S_TEXT/UTF8
Идентификатор кодека/Информация : UTF-8 Plain Text
Язык : Russian
Default : Нет
Forced : Нет

Меню
00:00:00.000 : en:00:00:00.000
00:08:26.339 : en:00:08:26.339
00:17:38.182 : en:00:17:38.182
00:24:33.222 : en:00:24:33.222
00:32:16.935 : en:00:32:16.935
00:37:47.765 : en:00:37:47.765
00:45:03.993 : en:00:45:03.993
00:53:36.922 : en:00:53:36.922
01:05:59.747 : en:01:05:59.747
01:14:33.511 : en:01:14:33.511
01:19:50.869 : en:01:19:50.869
01:28:13.497 : en:01:28:13.497
01:37:00.023 : en:01:37:00.023

BDRip720p BDRemux








Релиз от: Temperest
загрузка...
Правила, инструкции, FAQ!!!
Торрент  Добавлен [06 янв 2015, 16:38] Скачать торрент
Скачать торрент
[ Размер 24.43 КБ / Просмотров 1 ]

Статус
Проверен 
 
Размер  9.5 ГБ
Приватный: Нет (DHT включён)
.torrent скачан  0
Как залить торрент? | Как скачать Torrent? | Как смотреть и слушать онлайн?  


     Отправить личное сообщение
   
Страница 1 из 1
Показать сообщения за:  Поле сортировки  
Начать новую тему Ответить на тему

   Похожие торренты   Автор   Ответы   Просмотры   Последнее сообщение 
В этой теме нет новых непрочитанных сообщений. Скачать торрент Проверен Свяжи меня / Tie Me Up! Tie Me Down! / Átame! (1989) BDRip

в форуме Драмы, Мелодрамы, Размер: 2.18 ГБ, Здоровье: 100%

Гость

0
63|40

236
26

13 ноя 2015, 20:03

Гость Перейти к последнему сообщению

В этой теме нет новых непрочитанных сообщений. Скачать торрент Проверен Харакири / Ichimei (2011) BDRip 720p | GER Transfer | Р

в форуме 720p | 1080p, Размер: 7.56 ГБ, Здоровье: 100%

Гость

0
69|55

133
58

28 ноя 2015, 21:51

Гость Перейти к последнему сообщению

В этой теме нет новых непрочитанных сообщений. Скачать торрент Проверен Нечто / The Thing (2011) BDRip 720p | US Transfer

в форуме 720p | 1080p, Размер: 4.37 ГБ, Здоровье: 100%

Anonymous

0
40|2

30
229

07 ноя 2014, 20:32

Anonymous Перейти к последнему сообщению

В этой теме нет новых непрочитанных сообщений. Скачать торрент Проверен Хоть раз в жизни / Begin again (2013) BDRip 720p | GER Transfer | Лицензия

в форуме 720p | 1080p, Размер: 3.16 ГБ, Здоровье: 100%

Anonymous

0
358|48

48
449

02 янв 2015, 15:51

Anonymous Перейти к последнему сообщению

В этой теме нет новых непрочитанных сообщений. Скачать торрент Проверен И твою маму тоже / Y tu mamá también (2001) BDRip 720p | US transfer | A, P2

в форуме 720p | 1080p, Размер: 4.04 ГБ, Здоровье: 100%

Гость

0
24|12

37
266

31 янв 2015, 00:07

Гость Перейти к последнему сообщению



Сейчас этот форум просматривают: нет зарегистрированных пользователей и гости: 5


Вы не можете начинать темы
Вы не можете отвечать на сообщения
Вы не можете редактировать свои сообщения
Вы не можете удалять свои сообщения
Вы не можете добавлять вложения

Перейти:  

!ВНИМАНИЕ!
 Ресурс не предоставляет электронные версии произведений, а занимается лишь коллекционированием и каталогизацией ссылок, присылаемых и публикуемых на форуме нашими читателями. Если вы являетесь правообладателем какого-либо представленного материала и не желаете чтобы ссылка на него находилась в нашем каталоге, свяжитесь с нами и мы незамедлительно удалим её. Файлы для обмена на трекере предоставлены пользователями сайта, и администрация не несёт ответственности за их содержание. Просьба не заливать файлы, защищенные авторскими правами, а также файлы нелегального содержания!