На всех торрентах на трекере установлена скидка на скачивание в размере 100 процентов(а).
 Возможность скачивания торрента НЕ зависит от ограничений при низком ратио, низком аплоаде, требуемом ратио или требуемом аплоаде.


Начать новую тему Ответить на тему
Статистика раздачи
Размер: 5.79 ГБ | Добавлен: 06 янв 2015, 14:37 | Скачали: 209
Сидеров: 53  [0 байт/сек]    Личеров: 5  [0 байт/сек]
Пред. тема | След. тема 

Автор
Сообщение

СообщениеДобавлено: 06 янв 2015, 14:37 

Название: Желтоглазые крокодилы
Оригинальное название: Les yeux jaunes des crocodiles
Год выхода: 2014
Жанр: Драма
Режиссер: Сесиль Телерман
В ролях: Жюли Депардье, Эммануэль Беар, Патрик Брюэль, Alice Isaaz, Жак Вебер, Кароль Роше, Эдит Скоб, Самюэль Ле Бьян, Ким Гутьеррес, Яна Биттнерова
О фильме:
Две сестры — полная противоположность друг другу. 40-летняя Жозефина занимается изучением средневековой Франции и воспитывает дочерей. Ее муж, хронический безработный, внезапно отправляется с молодой любовницей разводить крокодилов в Кении. Ее сестра Ирис, напротив, светская женщина, красавица, удачно вышедшая замуж. Однажды, чтобы пустить пыль в глаза, она солгала, что пишет роман про 12 век. Вынужденная выкручиваться из ситуации, она предлагает Жозефине, которой очень нужны деньги, написать роман за нее. Никто из них не мог предположить, что книга станет национальным бестселлером…

Страна: Франция
Студия: Les Films Manuel Munz
Продолжительность: 02:02:58
Перевод: Профессиональный (многоголосый) закадровый, официальный [Позитив]

Кодек: MPEG-4 AVC
Качество: BDRip 720p
Видео: 4851 Кбит/с, 1280x688, 23.976 кадр/с
Аудио #1: Русский (AC3, 6 ch, 384 Кбит/с) / Профессиональный многоголосый
Аудио #2: Францзузский (DTS, 6 ch, 1510 Кбит/с)
Субтитры: Францзузские

File: D:ВидеоLes yeux jaunes des crocodiles.2014.P.BDRip.720p.mkv
General
Unique ID : 178440401482581085502905293503898447657 (0x863E5F0A43C99C27B6277EDBD38DEF29)
Complete name : D:ВидеоLes yeux jaunes des crocodiles.2014.P.BDRip.720p.mkv
Format : Matroska
Format version : Version 2
File size : 5.79 GiB
Duration : 2h 2mn
Overall bit rate : 6 745 Kbps
Encoded date : UTC 2015-01-05 13:01:16
Writing application : mkvmerge v7.4.0 ('Circles') 64bit built on Dec 12 2014 12:19:56
Writing library : libebml v1.3.0 + libmatroska v1.4.1
_STATISTICS_WRITING_APP : mkvmerge v7.4.0 ('Circles') 64bit built on Dec 12 2014 12:19:56
_STATISTICS_WRITING_DATE_UTC : 2015-01-05 13:01:16
_STATISTICS_TAGS : BPS DURATION NUMBER_OF_FRAMES NUMBER_OF_BYTES
DURATION : 02:02:58.912000000
NUMBER_OF_FRAMES : 230591
NUMBER_OF_BYTES : 354187776
Video
ID : 1
Format : AVC
Format/Info : Advanced Video Codec
Format profile : High@L4.1
Format settings, CABAC : Yes
Format settings, ReFrames : 5 frames
Codec ID : V_MPEG4/ISO/AVC
Duration : 2h 2mn
Bit rate : 4 851 Kbps
Width : 1 280 pixels
Height : 688 pixels
Display aspect ratio : 1.85:1
Frame rate mode : Constant
Frame rate : 23.976 fps
Color space : YUV
Chroma subsampling : 4:2:0
Bit depth : 8 bits
Scan type : Progressive
Bits/(Pixel*Frame) : 0.230
Stream size : 4.05 GiB (70%)
Title : DEAL - Yeux Jaunes - 720p
Writing library : x264 core 144 r2525 40bb568
Encoding settings : cabac=1 / ref=5 / deblock=1:0:0 / analyse=0x3:0x133 / me=umh / subme=7 / psy=1 / psy_rd=1.00:0.00 / mixed_ref=1 / me_range=16 / chroma_me=1 / trellis=1 / 8x8dct=1 / cqm=0 / deadzone=21,11 / fast_pskip=0 / chroma_qp_offset=-2 / threads=16 / lookahead_threads=2 / sliced_threads=0 / nr=0 / decimate=1 / interlaced=0 / bluray_compat=0 / constrained_intra=0 / bframes=3 / b_pyramid=2 / b_adapt=1 / b_bias=0 / direct=1 / weightb=1 / open_gop=0 / weightp=2 / keyint=240 / keyint_min=23 / scenecut=40 / intra_refresh=0 / rc_lookahead=40 / rc=2pass / mbtree=1 / bitrate=4851 / ratetol=1.0 / qcomp=0.60 / qpmin=0 / qpmax=69 / qpstep=4 / cplxblur=20.0 / qblur=0.5 / ip_ratio=1.40 / aq=1:1.00
Language : French
Default : Yes
Forced : No
Audio #1
ID : 2
Format : AC-3
Format/Info : Audio Coding 3
Mode extension : CM (complete main)
Format settings, Endianness : Big
Codec ID : A_AC3
Duration : 2h 2mn
Bit rate mode : Constant
Bit rate : 384 Kbps
Channel(s) : 6 channels
Channel positions : Front: L C R, Side: L R, LFE
Sampling rate : 48.0 KHz
Bit depth : 16 bits
Compression mode : Lossy
Stream size : 338 MiB (6%)
Language : Russian
Default : Yes
Forced : Yes
Audio #2
ID : 3
Format : DTS
Format/Info : Digital Theater Systems
Mode : 16
Format settings, Endianness : Big
Codec ID : A_DTS
Duration : 2h 2mn
Bit rate mode : Constant
Bit rate : 1 509 Kbps
Channel(s) : 6 channels
Channel positions : Front: L C R, Side: L R, LFE
Sampling rate : 48.0 KHz
Bit depth : 24 bits
Compression mode : Lossy
Stream size : 1.30 GiB (22%)
Title : French DTS
Language : French
Default : No
Forced : No
Text
ID : 4
Format : UTF-8
Codec ID : S_TEXT/UTF8
Codec ID/Info : UTF-8 Plain Text
Title : FR Forced
Language : French
Default : Yes
Forced : No
загрузка...
Правила, инструкции, FAQ!!!
Торрент  Добавлен [06 янв 2015, 14:37] Скачать торрент
Скачать торрент
[ Размер 15.2 КБ / Просмотров 3 ]

Статус
Проверен 
 
Размер  5.79 ГБ
Приватный: Нет (DHT включён)
.torrent скачан  209
Как залить торрент? | Как скачать Torrent? | Как смотреть и слушать онлайн?  


     Отправить личное сообщение
   
Страница 1 из 1
Показать сообщения за:  Поле сортировки  
Начать новую тему Ответить на тему

   Похожие торренты   Автор   Ответы   Просмотры   Последнее сообщение 
В этой теме нет новых непрочитанных сообщений. Скачать торрент Проверен Желтоглазые крокодилы / Les yeux jaunes des crocodiles (2014) WEBRip

в форуме Драмы, Мелодрамы, Размер: 1.46 ГБ, Здоровье: 100%

Anonymous

0
177|6

25
3577

08 авг 2014, 21:01

Anonymous Перейти к последнему сообщению

В этой теме нет новых непрочитанных сообщений. Скачать торрент Проверен Деревенские крокодилы 3 / Vorstadtkrokodile 3 (2011) BDRip 720p | L1

в форуме 720p | 1080p, Размер: 4.22 ГБ, Здоровье: 100%

Anonymous

0
14|10

70
14

06 апр 2016, 21:06

Anonymous Перейти к последнему сообщению

В этой теме нет новых непрочитанных сообщений. Скачать торрент Проверен Деревенские крокодилы / Vorstadtkrokodile (2009) BDRip 720p | P, L1

в форуме 720p | 1080p, Размер: 5.33 ГБ, Здоровье: 1%

Гость

0
1|54

120
2

06 апр 2016, 20:59

Гость Перейти к последнему сообщению

В этой теме нет новых непрочитанных сообщений. Скачать торрент Проверен Деревенские крокодилы 2 / Vorstadtkrokodile 2 (2010) BDRip 720p | P, L1

в форуме 720p | 1080p, Размер: 4.76 ГБ, Здоровье: 100%

Anonymous

0
15|10

56
12

06 апр 2016, 21:03

Anonymous Перейти к последнему сообщению

В этой теме нет новых непрочитанных сообщений. Скачать торрент Проверен (New Wave) [LP] [24/96] Echo & The Bunnymen - Crocodiles - 1980, WavPack (image+.cue)

в форуме Зарубежный рок (оцифровки), Размер: 746.5 МБ, Здоровье: 100%

Anonymous

0
5|2

0
0

27 авг 2016, 10:21

Anonymous Перейти к последнему сообщению



Сейчас этот форум просматривают: нет зарегистрированных пользователей и гости: 1


Вы не можете начинать темы
Вы не можете отвечать на сообщения
Вы не можете редактировать свои сообщения
Вы не можете удалять свои сообщения
Вы не можете добавлять вложения

Перейти:  

!ВНИМАНИЕ!
 Ресурс не предоставляет электронные версии произведений, а занимается лишь коллекционированием и каталогизацией ссылок, присылаемых и публикуемых на форуме нашими читателями. Если вы являетесь правообладателем какого-либо представленного материала и не желаете чтобы ссылка на него находилась в нашем каталоге, свяжитесь с нами и мы незамедлительно удалим её. Файлы для обмена на трекере предоставлены пользователями сайта, и администрация не несёт ответственности за их содержание. Просьба не заливать файлы, защищенные авторскими правами, а также файлы нелегального содержания!