На всех торрентах на трекере установлена скидка на скачивание в размере 100 процентов(а).
 Возможность скачивания торрента НЕ зависит от ограничений при низком ратио, низком аплоаде, требуемом ратио или требуемом аплоаде.


Начать новую тему Ответить на тему
Статистика раздачи
Размер: 8.76 ГБ | Добавлен: 06 янв 2015, 10:55 | Скачали: 0
Сидеров: 50  [0 байт/сек]    Личеров: 4  [0 байт/сек]
Пред. тема | След. тема 

Автор
Сообщение

СообщениеДобавлено: 06 янв 2015, 10:55 

Производство: Германия, Франция, Великобритания, ЮАР
Жанр: Боевик
Перевод: Многоголосый закадровый, профессиональный
Субтитры: Вшитые (отключаемые)
Язык субтитров: Датские

Режиссер: Филипп Мартинез
Продюсер: Алан Лэтэм, Филиппе Мартинез
Актеры: Жан-Клод ван Дамм, Валери Тиан, Энтони Фриджон, Уоррик Гриер, Клод Эрнандез, Андре Джейкобс

Описание фильма:
Преступник со стажем Бен Арчер решает отойти от дел и начать спокойную жизнь. Но его планам не суждено сбыться. В один из дней добродушная жена Бена разрешает пожить в их доме некоторое время молоденькой азиатке Ким. Семья Арчеров не догадывается, что девушка – дочь босса китайской мафии, отправившего по ее следу группу наемников. В один из дней китайские головорезы находят Ким в доме Арчеров. Девушке и сыну Бена удается спастись, но его жена погибает от рук наемных убийц. Бен решает отомстить китайской триаде за смерть любимой супруги.



Продолжительность: 01:26:21
Качество видео: BDRip

Видеокодек: MPEG-4 AVC/H.264
Битрейт видео: ~12300 Кбит/с
Размер кадра: 1920x1080

Аудио 1: Русский AC3, 6 ch, 448 Кбит/с
Аудио 2: Английский DTS, 6 ch, 1509 Кбит/с
General
Complete name : O:\Пробуждение смерти.След смерти.Wake of death.BDRip.2004.mkv
Format : Matroska
File size : 8.76 GiB
Duration : 1h 26mn
Overall bit rate : 14.5 Mbps
Movie name : Пробуждение смерти / Wake of Death (2004)
Encoded date : UTC 2011-09-27 10:59:01
Writing application : mkvmerge v4.8.0 ('I Got The...') built on May 24 2011 03:12:58
Writing library : libebml v1.2.0 + libmatroska v1.1.0

Video
ID : 1
Format : AVC
Format/Info : Advanced Video Codec
Format profile :
Format settings, CABAC : Yes
Format settings, ReFrames : 3 frames
Muxing mode : Container profile=Unknown@4.1
Codec ID : V_MPEG4/ISO/AVC
Duration : 1h 26mn
Bit rate : 12.3 Mbps
Nominal bit rate : 12.6 Mbps
Width : 1 920 pixels
Height : 1 080 pixels
Display aspect ratio : 16:9
Frame rate : 23.976 fps
Resolution : 8 bits
Colorimetry : 4:2:0
Scan type : Progressive
Bits/(Pixel*Frame) : 0.247
Stream size : 7.40 GiB (84%)
Writing library : x264 core 80 r1376kGIT 3feaec2
Encoding settings : cabac=1 / ref=3 / deblock=1:0:0 / analyse=0x3:0x133 / me=umh / subme=7 / psy=1 / psy_rd=1.0:0.0 / mixed_ref=1 / me_range=16 / chroma_me=1 / trellis=1 / 8x8dct=1 / cqm=0 / deadzone=21,11 / fast_pskip=1 / chroma_qp_offset=-2 / threads=6 / sliced_threads=0 / nr=0 / decimate=1 / mbaff=0 / constrained_intra=0 / bframes=3 / b_pyramid=0 / b_adapt=1 / b_bias=0 / direct=1 / wpredb=1 / wpredp=2 / keyint=240 / keyint_min=24 / scenecut=40 / rc_lookahead=40 / rc=2pass / mbtree=1 / bitrate=12553 / ratetol=1.0 / qcomp=0.60 / qpmin=10 / qpmax=51 / qpstep=4 / cplxblur=20.0 / qblur=0.5 / vbv_maxrate=25000 / vbv_bufsize=25000 / ip_ratio=1.40 / aq=1:1.00

Audio #1
ID : 2
Format : AC-3
Format/Info : Audio Coding 3
Codec ID : A_AC3
Duration : 1h 26mn
Bit rate mode : Constant
Bit rate : 448 Kbps
Channel(s) : 6 channels
Channel positions : Front: L C R, Surround: L R, LFE
Sampling rate : 48.0 KHz
Stream size : 277 MiB (3%)
Title : Russian
Language : Russian

Audio #2
ID : 3
Format : DTS
Format/Info : Digital Theater Systems
Codec ID : A_DTS
Duration : 1h 26mn
Bit rate mode : Constant
Bit rate : 1 510 Kbps
Channel(s) : 6 channels
Channel positions : Front: L C R, Surround: L R, LFE
Sampling rate : 48.0 KHz
Resolution : 16 bits
Video delay : 33ms
Stream size : 933 MiB (10%)
Title : English

Text
ID : 4
Format : UTF-8
Codec ID : S_TEXT/UTF8
Codec ID/Info : UTF-8 Plain Text
Title : Danish
Language : Danish

Скриншоты:

загрузка...
Правила, инструкции, FAQ!!!
Торрент  Добавлен [06 янв 2015, 10:55] Скачать торрент
Скачать торрент
[ Размер 44.57 КБ / Просмотров 5 ]

Статус
Проверен 
 
Размер  8.76 ГБ
Приватный: Нет (DHT включён)
.torrent скачан  0
Как залить торрент? | Как скачать Torrent? | Как смотреть и слушать онлайн?  


     Отправить личное сообщение
   
Страница 1 из 1
Показать сообщения за:  Поле сортировки  
Начать новую тему Ответить на тему

   Похожие торренты   Автор   Ответы   Просмотры   Последнее сообщение 
В этой теме нет новых непрочитанных сообщений. Скачать торрент Проверен Пробуждение смерти / Wake of Death (2004) DVDRip

в форуме Боевики, Размер: 1.7 ГБ, Здоровье: 100%

Гость

0
5|4

82
21

29 мар 2015, 22:43

Гость Перейти к последнему сообщению

В этой теме нет новых непрочитанных сообщений. Скачать торрент Проверен Игра смерти / Game of Death / Si wang you xi (1978) BDRip [H.264/1080p]

в форуме 720p | 1080p, Размер: 11.73 ГБ, Здоровье: 0%

Гость

0
0|0

54
1

22 май 2015, 10:02

Гость Перейти к последнему сообщению

В этой теме нет новых непрочитанных сообщений. Скачать торрент Проверен Звёздные войны: Пробуждение силы / Star Wars: Episode VII - The Force Awakens (2015) BDRip 1080p | iTunes

в форуме 720p | 1080p, Размер: 17.56 ГБ, Здоровье: 100%

Гость

0
1220|550

274
3139

01 апр 2016, 20:17

Гость Перейти к последнему сообщению

В этой теме нет новых непрочитанных сообщений. Скачать торрент Проверен Игра смерти / Game of Death (1978) BDRip

в форуме Боевики, Размер: 2.18 ГБ, Здоровье: 100%

Anonymous

0
10|0

57
378

20 июл 2014, 22:48

Anonymous Перейти к последнему сообщению

В этой теме нет новых непрочитанных сообщений. Скачать торрент Опасная иллюзия / Влюбиться до смерти / The Necessary Death of Charlie Countryman (2013) BDRip 720p | L2

в форуме 720p | 1080p, Размер: 5.1 ГБ, Здоровье: 0%

Anonymous

0
0|0

45
0

11 янв 2014, 22:16

Anonymous Перейти к последнему сообщению



Сейчас этот форум просматривают: нет зарегистрированных пользователей и гости: 3


Вы не можете начинать темы
Вы не можете отвечать на сообщения
Вы не можете редактировать свои сообщения
Вы не можете удалять свои сообщения
Вы не можете добавлять вложения

Перейти:  

!ВНИМАНИЕ!
 Ресурс не предоставляет электронные версии произведений, а занимается лишь коллекционированием и каталогизацией ссылок, присылаемых и публикуемых на форуме нашими читателями. Если вы являетесь правообладателем какого-либо представленного материала и не желаете чтобы ссылка на него находилась в нашем каталоге, свяжитесь с нами и мы незамедлительно удалим её. Файлы для обмена на трекере предоставлены пользователями сайта, и администрация не несёт ответственности за их содержание. Просьба не заливать файлы, защищенные авторскими правами, а также файлы нелегального содержания!