На всех торрентах на трекере установлена скидка на скачивание в размере 100 процентов(а).
 Возможность скачивания торрента НЕ зависит от ограничений при низком ратио, низком аплоаде, требуемом ратио или требуемом аплоаде.


Начать новую тему Ответить на тему
Статистика раздачи
Размер: 5.33 ГБ | Добавлен: 06 янв 2015, 10:52 | Скачали: 0
Сидеров: 45  [0 байт/сек]    Личеров: 1  [0 байт/сек]
Пред. тема | След. тема 

Автор
Сообщение

СообщениеДобавлено: 06 янв 2015, 10:52 

Год выпуска: 1996
Производство: США, Seagal/Nasso Productions, Warner Bros. Pictures
Жанр: Боевик, Криминал, Триллер
Перевод: Дублированный, профессиональный многоголосый, авторский
Субтитры: Вшитые (отключаемые)
Язык субтитров: Русские, английские

Описание фильма:
Перед полицейским управлением Лос-Анджелеса поставлена задача: найти и обезвредить преступника, на счету которого немало жертв. Непосредственно по следу убийцы идут два сыщика: Джек Коул и Джим Кэмпбелл. В таком ответственном и рискованном деле, как охота на убийцу, от партнера зависит многое, а иногда все. Однако именно эти двое полицейских решительно неспособны понять друг друга. Суровый и немногословный Коул, воспитанный на восточной философии и боевых искусствах, не может не удивляться своему напарнику, балагуру и шутнику. А Кэмпбелла, как человека здравомыслящего и житейски опытного, раздражает постоянная склонность партнера к мордобою и прочим резким действиям. Порой ему вообще начинает казаться, что преступник, которого они ищут, не кто иной, как его напарник Коул.

Режиссер: Джон Грэй
Актеры: Стивен Сигал, Кинен Айвори Уайанс, Боб Гантон, Брайан Кокс, Джон М. Джексон, Мишель Джонсон, Стивен Тоболовски, Питер Джейсон, Райан Кутрона, Ричард Гант, Роберт Мейлхаус, Джонни Стронг, Джесси Сток, Алекса Вега, Никки Кокс, Уэнди Роби



Дата мировой премьеры: 4 октября 1996
Дата выхода DVD релиза: 16 мая 2002, «Мост-Видео»

Продолжительность: 01:31:21
Качество видео: HDTVRip [720p]

Видеокодек: MPEG-4 AVC/H.264
Битрейт видео: ~6232 Кбит/с
Размер кадра: 1280x688

Аудио 1: Русский AC3, 6 ch, 384 Кбит/с | Дубляж (Мост-Видео)
Аудио 2: Русский AC3, 2 ch, 192 Кбит/с | Дубляж (Варус Видео)
Аудио 3: Русский AC3, 2 ch, 192 Кбит/с | Многоголосый закадровый №1
Аудио 4: Русский AC3, 2 ch, 192 Кбит/с | Многоголосый закадровый №2
Аудио 5: Русский AC3, 2 ch, 224 Кбит/с | Авторский (С. Визгунов)
Аудио 6: Русский AC3, 6 ch, 384 Кбит/с | Авторский (А. Гаврилов)
Аудио 7: Английский AC3, 6 ch, 384 Кбит/с | Оригинал
General
Complete name : E:\Mercajuwij.1996.HDTVRip.720p.mkv
Format : Matroska
File size : 5.33 GiB
Duration : 1h 31mn
Overall bit rate : 8 350 Kbps
Movie name : The Glimmer Man. 1996. HDTVRip (720p)
Encoded date : UTC 2010-08-23 13:29:37
Writing application : mkvmerge v2.4.0 ('Fumbling Towards Ecstasy') built on Oct 11 2008 20:13:15
Writing library : libebml v0.7.7 + libmatroska v0.8.1

Video
ID : 1
Format : AVC
Format/Info : Advanced Video Codec
Format profile :
Format settings, CABAC : Yes
Format settings, ReFrames : 5 frames
Muxing mode : Container profile=Unknown@4.1
Codec ID : V_MPEG4/ISO/AVC
Duration : 1h 31mn
Bit rate : 6 232 Kbps
Nominal bit rate : 6 400 Kbps
Width : 1 280 pixels
Height : 688 pixels
Display aspect ratio : 1.860
Frame rate : 23.976 fps
Resolution : 8 bits
Colorimetry : 4:2:0
Scan type : Progressive
Bits/(Pixel*Frame) : 0.295
Stream size : 3.97 GiB (75%)
Title : Мерцающий. 1996. HDTVRip (720p)
Writing library : x264 core 98 r1649 c54c47d
Encoding settings : cabac=1 / ref=5 / deblock=1:-1:-1 / analyse=0x3:0x133 / me=hex / subme=7 / psy=1 / psy_rd=1.00:0.15 / mixed_ref=1 / me_range=16 / chroma_me=1 / trellis=2 / 8x8dct=1 / cqm=0 / deadzone=21,11 / fast_pskip=0 / chroma_qp_offset=-5 / threads=3 / sliced_threads=0 / slices=4 / nr=0 / decimate=1 / interlaced=0 / constrained_intra=0 / bframes=3 / b_pyramid=0 / b_adapt=1 / b_bias=0 / direct=1 / weightb=1 / weightp=2 / keyint=24 / keyint_min=2 / scenecut=0 / intra_refresh=0 / rc_lookahead=32 / rc=2pass / mbtree=1 / bitrate=6400 / ratetol=1.0 / qcomp=0.60 / qpmin=10 / qpmax=51 / qpstep=4 / cplxblur=20.0 / qblur=0.5 / vbv_maxrate=30000 / vbv_bufsize=40500 / ip_ratio=1.40 / aq=1:1.00 / nal_hrd=none
Language : English

Audio #1
ID : 2
Format : AC-3
Format/Info : Audio Coding 3
Codec ID : A_AC3
Duration : 1h 31mn
Bit rate mode : Constant
Bit rate : 384 Kbps
Channel(s) : 6 channels
Channel positions : Front: L C R, Surround: L R, LFE
Sampling rate : 48.0 KHz
Stream size : 251 MiB (5%)
Title : DUB (Мост Видео) (DD 5.1 384 kbps)
Language : Russian

Audio #2
ID : 3
Format : AC-3
Format/Info : Audio Coding 3
Codec ID : A_AC3
Duration : 1h 31mn
Bit rate mode : Constant
Bit rate : 192 Kbps
Channel(s) : 2 channels
Channel positions : L R
Sampling rate : 48.0 KHz
Stream size : 125 MiB (2%)
Title : DUB (Варус Видео) (DD 2.0 192 kbps)
Language : Russian

Audio #3
ID : 4
Format : AC-3
Format/Info : Audio Coding 3
Codec ID : A_AC3
Duration : 1h 31mn
Bit rate mode : Constant
Bit rate : 192 Kbps
Channel(s) : 2 channels
Channel positions : L R
Sampling rate : 48.0 KHz
Stream size : 125 MiB (2%)
Title : MVO №1 (DD 2.0 192 kbps)
Language : Russian

Audio #4
ID : 5
Format : AC-3
Format/Info : Audio Coding 3
Codec ID : A_AC3
Duration : 1h 31mn
Bit rate mode : Constant
Bit rate : 192 Kbps
Channel(s) : 2 channels
Channel positions : L R
Sampling rate : 48.0 KHz
Stream size : 125 MiB (2%)
Title : MVO №2 (DD 2.0 192 kbps)
Language : Russian

Audio #5
ID : 6
Format : AC-3
Format/Info : Audio Coding 3
Codec ID : A_AC3
Duration : 1h 31mn
Bit rate mode : Constant
Bit rate : 224 Kbps
Channel(s) : 2 channels
Channel positions : L R
Sampling rate : 48.0 KHz
Stream size : 146 MiB (3%)
Title : AVO (Визгунов) (DD 2.0 192 kbps)
Language : Russian

Audio #6
ID : 7
Format : AC-3
Format/Info : Audio Coding 3
Codec ID : A_AC3
Duration : 1h 31mn
Bit rate mode : Constant
Bit rate : 384 Kbps
Channel(s) : 6 channels
Channel positions : Front: L C R, Surround: L R, LFE
Sampling rate : 48.0 KHz
Stream size : 251 MiB (5%)
Title : AVO (Гаврилов) (DD 5.1 384 kbps)
Language : Russian

Audio #7
ID : 8
Format : AC-3
Format/Info : Audio Coding 3
Codec ID : A_AC3
Duration : 1h 31mn
Bit rate mode : Constant
Bit rate : 384 Kbps
Channel(s) : 6 channels
Channel positions : Front: L C R, Surround: L R, LFE
Sampling rate : 48.0 KHz
Stream size : 251 MiB (5%)
Title : Original (DD 5.1 384 kbps)
Language : English

Text #1
ID : 9
Format : UTF-8
Codec ID : S_TEXT/UTF8
Codec ID/Info : UTF-8 Plain Text
Language : Russian

Text #2
ID : 10
Format : UTF-8
Codec ID : S_TEXT/UTF8
Codec ID/Info : UTF-8 Plain Text
Language : English

Menu
00:00:00.000 : en:1
00:10:00.000 : en:2
00:20:00.000 : en:3
00:30:00.000 : en:4
00:40:00.000 : en:5
00:50:00.000 : en:6
01:00:00.000 : en:7
01:10:00.000 : en:8
01:20:00.000 : en:9
01:30:00.000 : en:10

Скриншоты:

загрузка...
Правила, инструкции, FAQ!!!
Торрент  Добавлен [06 янв 2015, 10:52] Скачать торрент
Скачать торрент
[ Размер 27.35 КБ / Просмотров 7 ]

Статус
Проверен 
 
Размер  5.33 ГБ
Приватный: Нет (DHT включён)
.torrent скачан  0
Как залить торрент? | Как скачать Torrent? | Как смотреть и слушать онлайн?  


     Отправить личное сообщение
   
Страница 1 из 1
Показать сообщения за:  Поле сортировки  
Начать новую тему Ответить на тему

   Похожие торренты   Автор   Ответы   Просмотры   Последнее сообщение 
В этой теме нет новых непрочитанных сообщений. Скачать торрент Мэрия / City Hall (1996) HDTVRip [H.264/720p-LQ] [Hi10P]

в форуме 720p | 1080p, Размер: 2.22 ГБ, Здоровье: 0%

Anonymous

0
0|0

24
0

19 дек 2013, 08:42

Anonymous Перейти к последнему сообщению

В этой теме нет новых непрочитанных сообщений. Скачать торрент Проверен МакSим - Полная дискография и видеография (2006-2015) FLAC, MP3, HDTVRip, HDTVRip 720p, HDTVRip 1080p

в форуме Дискографии (Отечественные), Размер: 24.2 ГБ, Здоровье: 100%

Гость

0
270|151

294
22

20 дек 2015, 12:22

Гость Перейти к последнему сообщению

В этой теме нет новых непрочитанных сообщений. Скачать торрент Проверен Хэнд Клоу Б. - Мерцающий свет секса. [2007, PDF, RUS]

в форуме Астрология, Размер: 66.14 МБ, Здоровье: 0%

Anonymous

0
0|0

2
1

11 сен 2016, 23:07

Anonymous Перейти к последнему сообщению

В этой теме нет новых непрочитанных сообщений. Скачать торрент Проверен Linkin Park - Rock in Rio 2012 HDTVRip 720p [2012, Alternative - Rock, HDTVRip 720p]

в форуме Концерты (HD-Video), Размер: 4.47 ГБ, Здоровье: 100%

Anonymous

0
1|0

3
0

23 окт 2016, 11:09

Anonymous Перейти к последнему сообщению

В этой теме нет новых непрочитанных сообщений. Скачать торрент Проверен (Blues) Andi Almqvist - Glimmer - 2009, FLAC (tracks+.cue), lossless

в форуме Blues (Texas, Chicago, Modern and Others), Размер: 229.16 МБ, Здоровье: 0%

Anonymous

0
0|0

0
0

15 окт 2016, 15:54

Anonymous Перейти к последнему сообщению



Сейчас этот форум просматривают: нет зарегистрированных пользователей и гости: 1


Вы не можете начинать темы
Вы не можете отвечать на сообщения
Вы не можете редактировать свои сообщения
Вы не можете удалять свои сообщения
Вы не можете добавлять вложения

Перейти:  

!ВНИМАНИЕ!
 Ресурс не предоставляет электронные версии произведений, а занимается лишь коллекционированием и каталогизацией ссылок, присылаемых и публикуемых на форуме нашими читателями. Если вы являетесь правообладателем какого-либо представленного материала и не желаете чтобы ссылка на него находилась в нашем каталоге, свяжитесь с нами и мы незамедлительно удалим её. Файлы для обмена на трекере предоставлены пользователями сайта, и администрация не несёт ответственности за их содержание. Просьба не заливать файлы, защищенные авторскими правами, а также файлы нелегального содержания!