На всех торрентах на трекере установлена скидка на скачивание в размере 100 процентов(а).
 Возможность скачивания торрента НЕ зависит от ограничений при низком ратио, низком аплоаде, требуемом ратио или требуемом аплоаде.


Начать новую тему Ответить на тему
Статистика раздачи
Размер: 5.84 ГБ | Добавлен: 05 янв 2015, 22:42 | Скачали: 125
Сидеров: 43  [0 байт/сек]    Личеров: 18  [0 байт/сек]
Пред. тема | След. тема 

Автор
Сообщение

СообщениеДобавлено: 05 янв 2015, 22:42 

Название: Вальс для Моники
Оригинальное название: Monica Z
Год выхода: 2013
Жанр: Драма, биография, музыка
Режиссер: Пер Флю / Per Fly

В ролях: Эдда Магнасон, Сверрир Гуднасон, Челл Бергквист, Оскар Тунберг, Надя Кристианссон, Вера Витали, Юханнес Ванселов, Сесилия Льюнг

О фильме:
Моника, девушка из маленького шведского городка, мечтала о ярких огнях джазовых ночных клубов. И ее мечта сбылась — она стала известной певицей и актрисой золотой эпохи джаза. Поклонники боготворят ее, но глубоко внутри она несчастна. За ней шлейфом тянутся разбитые сердца и невыполненные обещания. Утро Моника встречает в одиночестве, с коктейлем в руке, и осознает, что назад пути нет.

Страна: Швеция
Продолжительность: 01:51:31
Перевод: Профессиональный (многоголосый закадровый)


Кодек: x264
Качество: BDRip 720p
Видео: MPEG-4 AVC, 6328 Кбит/с, 1280x536, 23,976 fps
Звук:
Аудио: Rus, AC3, 384 kb/s (6 ch), 48 kHz
Аудио 2: Swe, AC3, 640 kb/s (6 ch), 48 kHz
Субтитры: Russian (Елена Володина), Eng, Swe Forced, Swe (.ass)



Format : Matroska
Format version : Version 4 / Version 2
File size : 5.84 GiB
Duration : 1h 51mn
Overall bit rate : 7 502 Kbps
Movie name : Tonik
Encoded date : UTC 2015-01-05 06:54:05
Writing application : mkvmerge v7.1.0 ('Good Love') 64bit built on Jul 27 2014 13:06:55
Writing library : libebml v1.3.0 + libmatroska v1.4.1
DURATION : 01:51:30.976000000
NUMBER_OF_FRAMES : 209093
NUMBER_OF_BYTES : 321166848
_STATISTICS_WRITING_APP : mkvmerge v7.1.0 ('Good Love') 64bit built on Jul 27 2014 13:06:55
_STATISTICS_WRITING_DATE_UTC : 2015-01-05 06:54:05
_STATISTICS_TAGS : BPS DURATION NUMBER_OF_FRAMES NUMBER_OF_BYTES
Attachment : Yes / Yes

Video
ID : 1
Format : AVC
Format/Info : Advanced Video Codec
Format profile : High@L4.1
Format settings, CABAC : Yes
Format settings, ReFrames : 9 frames
Codec ID : V_MPEG4/ISO/AVC
Duration : 1h 51mn
Bit rate : 6 328 Kbps
Width : 1 280 pixels
Height : 536 pixels
Display aspect ratio : 2.40:1
Frame rate mode : Constant
Frame rate : 24.000 fps
Color space : YUV
Chroma subsampling : 4:2:0
Bit depth : 8 bits
Scan type : Progressive
Bits/(Pixel*Frame) : 0.384
Stream size : 4.93 GiB (84%)
Writing library : x264 core 142 r2479kMod dd79a61
Encoding settings : cabac=1 / ref=9 / deblock=1:-3:-3 / analyse=0x3:0x133 / me=umh / subme=11 / psy=1 / fade_compensate=0.00 / psy_rd=1.00:0.00 / mixed_ref=1 / me_range=32 / chroma_me=1 / trellis=2 / 8x8dct=1 / cqm=0 / deadzone=21,11 / fast_pskip=1 / chroma_qp_offset=-2 / threads=12 / lookahead_threads=3 / sliced_threads=0 / nr=0 / decimate=1 / interlaced=0 / bluray_compat=0 / constrained_intra=0 / fgo=0 / bframes=10 / b_pyramid=2 / b_adapt=2 / b_bias=0 / direct=3 / weightb=1 / open_gop=0 / weightp=2 / keyint=250 / keyint_min=24 / scenecut=40 / intra_refresh=0 / rc=crf / mbtree=0 / crf=14.0000 / qcomp=0.65 / qpmin=0 / qpmax=69 / qpstep=4 / ip_ratio=1.25 / pb_ratio=1.20 / aq=1:0.60
Language : Swedish
Default : Yes
Forced : No
DURATION : 01:51:30.959000000
NUMBER_OF_FRAMES : 160583
NUMBER_OF_BYTES : 5414516563
_STATISTICS_WRITING_APP : mkvmerge v7.1.0 ('Good Love') 64bit built on Jul 27 2014 13:06:55
_STATISTICS_WRITING_DATE_UTC : 2015-01-05 06:54:05
_STATISTICS_TAGS : BPS DURATION NUMBER_OF_FRAMES NUMBER_OF_BYTES

Audio #1
ID : 2
Format : AC-3
Format/Info : Audio Coding 3
Mode extension : CM (complete main)
Format settings, Endianness : Big
Codec ID : A_AC3
Duration : 1h 51mn
Bit rate mode : Constant
Bit rate : 384 Kbps
Channel(s) : 6 channels
Channel positions : Front: L C R, Side: L R, LFE
Sampling rate : 48.0 KHz
Bit depth : 16 bits
Compression mode : Lossy
Stream size : 306 MiB (5%)
Language : Russian
Default : Yes
Forced : No

Audio #2
ID : 3
Format : AC-3
Format/Info : Audio Coding 3
Mode extension : CM (complete main)
Format settings, Endianness : Big
Codec ID : A_AC3
Duration : 1h 51mn
Bit rate mode : Constant
Bit rate : 640 Kbps
Channel(s) : 6 channels
Channel positions : Front: L C R, Side: L R, LFE
Sampling rate : 48.0 KHz
Bit depth : 16 bits
Compression mode : Lossy
Stream size : 510 MiB (9%)
Language : Swedish
Default : No
Forced : No

Text #1
ID : 4
Format : UTF-8
Codec ID : S_TEXT/UTF8
Codec ID/Info : UTF-8 Plain Text
Title : Елена Володина
Language : Russian
Default : No
Forced : No

Text #2
ID : 5
Format : UTF-8
Codec ID : S_TEXT/UTF8
Codec ID/Info : UTF-8 Plain Text
Language : English
Default : No
Forced : No

Text #3
ID : 6
Format : UTF-8
Codec ID : S_TEXT/UTF8
Codec ID/Info : UTF-8 Plain Text
Title : Forced ASS
Language : Swedish
Default : No
Forced : No

Text #4
ID : 7
Format : ASS
Codec ID : S_TEXT/ASS
Codec ID/Info : Advanced Sub Station Alpha
Compression mode : Lossless
Title : ASS
Language : Swedish
Default : No
Forced : No

Menu
00:00:00.000 : en:00:00:00.000
00:07:34.917 : en:00:07:34.917
00:11:07.667 : en:00:11:07.667
00:16:27.250 : en:00:16:27.250
00:22:37.458 : en:00:22:37.458
00:26:59.208 : en:00:26:59.208
00:32:50.625 : en:00:32:50.625
00:37:56.083 : en:00:37:56.083
00:44:23.875 : en:00:44:23.875
00:52:53.875 : en:00:52:53.875
00:58:09.583 : en:00:58:09.583
01:08:45.583 : en:01:08:45.583
01:15:48.458 : en:01:15:48.458
01:27:14.625 : en:01:27:14.625
01:31:02.083 : en:01:31:02.083
01:35:21.250 : en:01:35:21.250
01:42:39.917 : en:01:42:39.917
01:47:49.625 : en:01:47:49.625




загрузка...
Правила, инструкции, FAQ!!!
Торрент  Добавлен [05 янв 2015, 22:42] Скачать торрент
Скачать торрент
[ Размер 15.27 КБ / Просмотров 4 ]

Статус
Проверен 
 
Размер  5.84 ГБ
Приватный: Нет (DHT включён)
.torrent скачан  125
Как залить торрент? | Как скачать Torrent? | Как смотреть и слушать онлайн?  


     Отправить личное сообщение
   
Страница 1 из 1
Показать сообщения за:  Поле сортировки  
Начать новую тему Ответить на тему

   Похожие торренты   Автор   Ответы   Просмотры   Последнее сообщение 
В этой теме нет новых непрочитанных сообщений. Скачать торрент Проверен Вальс для Моники / Monica Z (2013) HDRip | P

в форуме Драмы, Мелодрамы, Размер: 1.46 ГБ, Здоровье: 100%

Anonymous

0
103|13

34
322

05 янв 2015, 22:49

Anonymous Перейти к последнему сообщению

В этой теме нет новых непрочитанных сообщений. Скачать торрент Проверен (Blues) Sista Monica - "Sista Monica" - 1997, APE (image+.cue), lossless

в форуме Blues (Texas, Chicago, Modern and Others), Размер: 401.67 МБ, Здоровье: ???%

Anonymous

0
0|1

1
1

15 окт 2016, 17:19

Anonymous Перейти к последнему сообщению

В этой теме нет новых непрочитанных сообщений. Скачать торрент Проверен Mylene Farmer: Timeless 2013 - Le Film (2013) BDRip 720p

в форуме Концерты (HD-Video), Размер: 4.37 ГБ, Здоровье: 100%

Anonymous

0
507|2

118
7

18 сен 2014, 20:07

Anonymous Перейти к последнему сообщению

В этой теме нет новых непрочитанных сообщений. Скачать торрент Она / Her (2013) BDRip 720p | L, A

в форуме 720p | 1080p, Размер: 10.41 ГБ, Здоровье: 0%

Anonymous

0
0|0

37
0

04 май 2014, 09:26

Anonymous Перейти к последнему сообщению

В этой теме нет новых непрочитанных сообщений. Скачать торрент Луи Сир / Louis Cyr (2013) BDRip 720p | L1

в форуме 720p | 1080p, Размер: 8.21 ГБ, Здоровье: 100%

Anonymous

0
6|1

31
11

02 май 2014, 07:36

Anonymous Перейти к последнему сообщению



Сейчас этот форум просматривают: нет зарегистрированных пользователей и гости: 1


Вы не можете начинать темы
Вы не можете отвечать на сообщения
Вы не можете редактировать свои сообщения
Вы не можете удалять свои сообщения
Вы не можете добавлять вложения

Перейти:  

!ВНИМАНИЕ!
 Ресурс не предоставляет электронные версии произведений, а занимается лишь коллекционированием и каталогизацией ссылок, присылаемых и публикуемых на форуме нашими читателями. Если вы являетесь правообладателем какого-либо представленного материала и не желаете чтобы ссылка на него находилась в нашем каталоге, свяжитесь с нами и мы незамедлительно удалим её. Файлы для обмена на трекере предоставлены пользователями сайта, и администрация не несёт ответственности за их содержание. Просьба не заливать файлы, защищенные авторскими правами, а также файлы нелегального содержания!