На всех торрентах на трекере установлена скидка на скачивание в размере 100 процентов(а).
 Возможность скачивания торрента НЕ зависит от ограничений при низком ратио, низком аплоаде, требуемом ратио или требуемом аплоаде.


Начать новую тему Ответить на тему
Статистика раздачи
Размер: 6.12 ГБ | Добавлен: 05 янв 2015, 22:15 | Скачали: 232
Сидеров: 120  [0 байт/сек]    Личеров: 37  [0 байт/сек]
Пред. тема | След. тема 

Автор
Сообщение

СообщениеДобавлено: 05 янв 2015, 22:15 

Русское название: Благодетель
Оригинальное название: The Rainmaker
Год выпуска: 1997
Жанр: триллер, драма
Выпущено: США
Режиссер: Френсис Форд Коппола / Francis Ford Coppola
В ролях: Мэтт Дэймон , Дэнни ДеВито , Клэр Дэйнс , Джон Войт , Дэнни Гловер , Мэри Кэй Плэйс , Тереза Райт , Джонни Витуорт , Рой Шайдер , Микки Рурк , Ред Уэст , Вирджиния Мэдсен
Перевод: Дублированный, Профессиональный многоголосый, Профессиональный (одноголосый), Авторский (одноголосый)


Сюжет фильма:
Молодому юристу Руди Бэйлору кажется, что вот - вот настанет «Звездный час» и он станет знаменитым адвокатом со своей собственной фирмой, роскошной виллой, шикарными машинами и женщинами. Но это только мечта.
И ему приходится заниматься черной, неблагодарной работой на других. Все меняется в один день, когда он наталкивается на многомиллионную аферу в страховом бизнесе, разоблачив которую, он может осуществить все свои заветные мечты... если, конечно, сможет остаться живым.



PG-13 - Детям до 13 лет просмотр не желателен

Фильм снят по мотивам романа «Золотой дождь» Джона Гришема (The Rainmaker, 1995).
Сцена, в которой герой Дэнни ДеВито пробуждает персонажа Мэтта Дэймона, заснувшего на скамейке, была снята неожиданно для Дэймона, поскольку он действительно заснул в процессе работы над этим эпизодом.
По ходу съемок
Мэтт Дэймон постепенно набирал вес, который он специально сбросил для роли в фильме «Мужество в бою» (1996).


Качество: BDRip 720p (исходник Blu-ray)
Формат: AVC (библиотека кодирования x.264)
Контейнер (Расширение): MKV
Видео: 1280x546 (2.35:1), 3970 Кбит/сек, 23,976 кадр/сек, 0,237 Бит/[Пиксели*Кадры]
Аудио №1: русский / AC3 / 5.1 / 48 kHz / 640 kbps / |Многоголосый закадровый, DVD R5|
Аудио №2: русский / AC3 / 2.0 / 48 kHz / 192 kbps / |Дублированный, Невафильм|
Аудио №3: русский / AC3 / 5.1 / 48 kHz / 640 kbps / |Авторский, Ю.Живов|
Аудио №4: русский / AC3 / 2.0 / 48 kHz / 192 kbps / |Многоголосый закадровый, ОРТ|
Аудио №5: русский / AC3 / 2.0 / 48 kHz / 192 kbps / |Одноголосый закадровый, Студия "Новый Вавилон"|
Аудио №6: английский / AC3 / 5.1 / 48 kHz / 640 kbps /
Субтитры: русские (Russian)
Навигация по главам(Чаптеры): есть
Продолжительность: 02:15:30

Автор рипа:
Format : Matroska
Format version : Version 2
File size : 6.12 GiB
Duration : 2h 15mn
Overall bit rate : 6 469 Kbps
Movie name : Blagodetel'.(1997).BDRip.720p.[denis100]
Encoded date : UTC 2015-01-05 09:58:57
Writing application : mkvmerge v5.8.0 ('No Sleep / Pillow') built on Sep 2 2012 15:37:04
Writing library : libebml v1.2.3 + libmatroska v1.3.0

Video
ID : 1
Format : AVC
Format/Info : Advanced Video Codec
Format profile : High@L4.1
Format settings, CABAC : Yes
Format settings, ReFrames : 5 frames
Codec ID : V_MPEG4/ISO/AVC
Duration : 2h 15mn
Bit rate : 3 970 Kbps
Width : 1 280 pixels
Height : 546 pixels
Display aspect ratio : 2.35:1
Frame rate mode : Constant
Frame rate : 23.976 fps
Color space : YUV
Chroma subsampling : 4:2:0
Bit depth : 8 bits
Scan type : Progressive
Bits/(Pixel*Frame) : 0.237
Stream size : 3.64 GiB (59%)
Title : Blagodetel'.(1997).BDRip.720p.[denis100]
Writing library : x264 core 142 r2491 24e4fed
Encoding settings : cabac=1 / ref=5 / deblock=1:-3:-3 / analyse=0x3:0x133 / me=umh / subme=11 / psy=1 / psy_rd=1.00:0.10 / mixed_ref=1 / me_range=32 / chroma_me=1 / trellis=2 / 8x8dct=1 / cqm=0 / deadzone=21,11 / fast_pskip=0 / chroma_qp_offset=-3 / threads=6 / lookahead_threads=1 / sliced_threads=0 / nr=0 / decimate=1 / interlaced=0 / bluray_compat=0 / constrained_intra=0 / bframes=8 / b_pyramid=2 / b_adapt=2 / b_bias=0 / direct=3 / weightb=1 / open_gop=0 / weightp=2 / keyint=240 / keyint_min=23 / scenecut=40 / intra_refresh=0 / rc=2pass / mbtree=0 / bitrate=3970 / ratetol=1.0 / qcomp=0.60 / qpmin=0 / qpmax=69 / qpstep=4 / cplxblur=20.0 / qblur=0.5 / ip_ratio=1.40 / pb_ratio=1.30 / aq=1:0.90
Language : English
Default : Yes
Forced : No

Audio #1
ID : 2
Format : AC-3
Format/Info : Audio Coding 3
Mode extension : CM (complete main)
Format settings, Endianness : Big
Codec ID : A_AC3
Duration : 2h 15mn
Bit rate mode : Constant
Bit rate : 640 Kbps
Channel(s) : 6 channels
Channel positions : Front: L C R, Side: L R, LFE
Sampling rate : 48.0 KHz
Bit depth : 16 bits
Compression mode : Lossy
Stream size : 620 MiB (10%)
Title : Многоголосый закадровый, DVD R5
Language : Russian
Default : Yes
Forced : No

Audio #2
ID : 3
Format : AC-3
Format/Info : Audio Coding 3
Mode extension : CM (complete main)
Format settings, Endianness : Big
Codec ID : A_AC3
Duration : 2h 15mn
Bit rate mode : Constant
Bit rate : 192 Kbps
Channel(s) : 2 channels
Channel positions : Front: L R
Sampling rate : 48.0 KHz
Bit depth : 16 bits
Compression mode : Lossy
Stream size : 186 MiB (3%)
Title : Дублированный, Невафильм
Language : Russian
Default : No
Forced : No

Audio #3
ID : 4
Format : AC-3
Format/Info : Audio Coding 3
Mode extension : CM (complete main)
Format settings, Endianness : Big
Codec ID : A_AC3
Duration : 2h 15mn
Bit rate mode : Constant
Bit rate : 640 Kbps
Channel(s) : 6 channels
Channel positions : Front: L C R, Side: L R, LFE
Sampling rate : 48.0 KHz
Bit depth : 16 bits
Compression mode : Lossy
Stream size : 620 MiB (10%)
Title : Авторский, Ю.Живов
Language : Russian
Default : No
Forced : No

Audio #4
ID : 5
Format : AC-3
Format/Info : Audio Coding 3
Mode extension : CM (complete main)
Format settings, Endianness : Big
Codec ID : A_AC3
Duration : 2h 15mn
Bit rate mode : Constant
Bit rate : 192 Kbps
Channel(s) : 2 channels
Channel positions : Front: L R
Sampling rate : 48.0 KHz
Bit depth : 16 bits
Compression mode : Lossy
Stream size : 186 MiB (3%)
Title : Многоголосый закадровый, ОРТ
Language : Russian
Default : No
Forced : No

Audio #5
ID : 6
Format : AC-3
Format/Info : Audio Coding 3
Mode extension : CM (complete main)
Format settings, Endianness : Big
Codec ID : A_AC3
Duration : 2h 15mn
Bit rate mode : Constant
Bit rate : 192 Kbps
Channel(s) : 2 channels
Channel positions : Front: L R
Sampling rate : 48.0 KHz
Bit depth : 16 bits
Compression mode : Lossy
Stream size : 186 MiB (3%)
Title : Одноголосый закадровый, Студия "Новый Вавилон"
Language : Russian
Default : No
Forced : No

Audio #6
ID : 7
Format : AC-3
Format/Info : Audio Coding 3
Mode extension : CM (complete main)
Format settings, Endianness : Big
Codec ID : A_AC3
Duration : 2h 15mn
Bit rate mode : Constant
Bit rate : 640 Kbps
Channel(s) : 6 channels
Channel positions : Front: L C R, Side: L R, LFE
Sampling rate : 48.0 KHz
Bit depth : 16 bits
Compression mode : Lossy
Stream size : 620 MiB (10%)
Title : English
Language : English
Default : No
Forced : No

Text
ID : 8
Format : UTF-8
Codec ID : S_TEXT/UTF8
Codec ID/Info : UTF-8 Plain Text
Title : Russian
Language : Russian
Default : No
Forced : No

Menu
00:00:00.000 : en:00:00:00.000
00:01:57.283 : en:00:01:57.283
00:07:29.406 : en:00:07:29.406
00:12:11.980 : en:00:12:11.980
00:15:35.017 : en:00:15:35.017
00:19:39.010 : en:00:19:39.010
00:28:15.652 : en:00:28:15.652
00:32:11.971 : en:00:32:11.971
00:34:18.889 : en:00:34:18.889
00:36:45.661 : en:00:36:45.661
00:40:47.277 : en:00:40:47.277
00:44:19.739 : en:00:44:19.739
00:50:09.588 : en:00:50:09.588
00:52:50.291 : en:00:52:50.291
00:57:29.403 : en:00:57:29.403
00:59:56.550 : en:00:59:56.550
01:05:18.831 : en:01:05:18.831
01:07:16.532 : en:01:07:16.532
01:09:20.864 : en:01:09:20.864
01:11:34.789 : en:01:11:34.789
01:17:41.573 : en:01:17:41.573
01:18:27.493 : en:01:18:27.493
01:26:38.818 : en:01:26:38.818
01:34:03.804 : en:01:34:03.804
01:36:44.047 : en:01:36:44.047
01:40:06.000 : en:01:40:06.000
01:49:03.953 : en:01:49:03.953
01:51:33.645 : en:01:51:33.645
01:59:12.561 : en:01:59:12.561
02:03:14.386 : en:02:03:14.386
02:05:25.100 : en:02:05:25.100
02:06:46.724 : en:02:06:46.724
02:09:04.987 : en:02:09:04.987
x264 [info]: frame I:1554 Avg QP:12.72 size:139589
x264 [info]: frame P:39342 Avg QP:14.94 size: 44732
x264 [info]: frame B:154032 Avg QP:17.49 size: 13358
загрузка...
Правила, инструкции, FAQ!!!
Торрент  Добавлен [05 янв 2015, 22:15] Скачать торрент
Скачать торрент
[ Размер 31.18 КБ / Просмотров 6 ]

Статус
Проверен 
 
Размер  6.12 ГБ
Приватный: Нет (DHT включён)
.torrent скачан  232
Как залить торрент? | Как скачать Torrent? | Как смотреть и слушать онлайн?  


     Отправить личное сообщение
   
Страница 1 из 1
Показать сообщения за:  Поле сортировки  
Начать новую тему Ответить на тему

   Похожие торренты   Автор   Ответы   Просмотры   Последнее сообщение 
В этой теме нет новых непрочитанных сообщений. Скачать торрент Проверен Благодетель / The Rainmaker (1997) BDRip 1080p

в форуме 720p | 1080p, Размер: 12.4 ГБ, Здоровье: 100%

Anonymous

0
17|5

22
112

05 янв 2015, 22:20

Anonymous Перейти к последнему сообщению

В этой теме нет новых непрочитанных сообщений. Скачать торрент Проверен Лолита / Lolita (1997) BDRip 720p

в форуме 720p | 1080p, Размер: 7.76 ГБ, Здоровье: 100%

Anonymous

0
64|6

46
232

06 дек 2014, 10:28

Anonymous Перейти к последнему сообщению

В этой теме нет новых непрочитанных сообщений. Скачать торрент Проверен Игра / The Game (1997) BDRip 720p

в форуме 720p | 1080p, Размер: 4.43 ГБ, Здоровье: 100%

Гость

0
249|54

91
345

27 май 2015, 00:01

Гость Перейти к последнему сообщению

В этой теме нет новых непрочитанных сообщений. Скачать торрент Проверен Без лица / Face/Off (1997) BDRip [720p]

в форуме 720p | 1080p, Размер: 13.5 ГБ, Здоровье: 100%

Anonymous

0
11|8

55
1

13 ноя 2014, 22:20

Anonymous Перейти к последнему сообщению

В этой теме нет новых непрочитанных сообщений. Скачать торрент Проверен Амистад / Amistad (1997) BDRip 720p | P, P2

в форуме 720p | 1080p, Размер: 8.26 ГБ, Здоровье: 100%

Гость

0
3|3

126
6

27 апр 2016, 20:35

Гость Перейти к последнему сообщению



Сейчас этот форум просматривают: нет зарегистрированных пользователей и гости: 2


Вы не можете начинать темы
Вы не можете отвечать на сообщения
Вы не можете редактировать свои сообщения
Вы не можете удалять свои сообщения
Вы не можете добавлять вложения

Перейти:  

!ВНИМАНИЕ!
 Ресурс не предоставляет электронные версии произведений, а занимается лишь коллекционированием и каталогизацией ссылок, присылаемых и публикуемых на форуме нашими читателями. Если вы являетесь правообладателем какого-либо представленного материала и не желаете чтобы ссылка на него находилась в нашем каталоге, свяжитесь с нами и мы незамедлительно удалим её. Файлы для обмена на трекере предоставлены пользователями сайта, и администрация не несёт ответственности за их содержание. Просьба не заливать файлы, защищенные авторскими правами, а также файлы нелегального содержания!