На всех торрентах на трекере установлена скидка на скачивание в размере 100 процентов(а).
 Возможность скачивания торрента НЕ зависит от ограничений при низком ратио, низком аплоаде, требуемом ратио или требуемом аплоаде.


Начать новую тему Ответить на тему
Статистика раздачи
Размер: 5.77 ГБ | Добавлен: 05 янв 2015, 20:20 | Скачали: 61
Сидеров: 30  [0 байт/сек]    Личеров: 15  [0 байт/сек]
Пред. тема | След. тема 

Автор
Сообщение

СообщениеДобавлено: 05 янв 2015, 20:20 

Название: Алиби
Оригинальное название: The Alibi
Год выхода: 2006
Жанр: мелодрама, комедия
Режиссер: Мэтт Чековски, Курт Маттила
В ролях: Джерри О’Коннелл, Джон Полито, Дебора Кара Ангер, Стив Кугэн, Кен Керман, Айми Гарсиа, Ясмин Делавари, Мэри Пэт Глисон, Ребекка Ромин, Генри Роллинз

О фильме:
Рэй Эллиот управляет службой алиби для мужчин и женщин, которые хотят провести некоторое время отдельно от их так называемых любимых. И жизнь Рэя была бы еще лучше, если бы не избалованный сын их самого богатого клиента, который уехал перед свадьбой поразвлечься и, как вы догадываетесь, не с невестой...



Страна: США, Нидерланды
Продолжительность: 01:30:31
Перевод: Профессиональный (дублированный) [R5]


Кодек: x264
Качество: BDRip (источник: BDRemux)
Видео: 1920x816 (2,35:1), 23.976 fps, 8484 kbps
Звук: AC-3, 6 ch, 640 kbps

Скриншоты

Общее
Уникальный идентификатор : 235579816032025489362246931756839329428 (0xB13B05AED44469EE9B20E0EC8E33DE94)
Полное имя : E:Alibi.2006.BDRip.1080p.Rus.mkv
Формат : Matroska
Версия формата : Version 4 / Version 2
Размер файла : 5,77 Гбайт
Продолжительность : 1 ч. 30 м.
Общий поток : 9120 Кбит/сек
Название фильма : Алиби (The Alibi) 2006
Дата кодирования : UTC 2010-02-22 21:41:31
Программа кодирования : mkvmerge v5.9.0 ('On The Loose') built on Dec 9 2012 15:37:01
Библиотека кодирования : libebml v1.3.0 + libmatroska v1.4.0

Видео
Идентификатор : 1
Формат : AVC
Формат/Информация : Advanced Video Codec
Профиль формата : High@L4.1
Параметр CABAC формата : Да
Параметр ReFrames формата : 5 кадров
Идентификатор кодека : V_MPEG4/ISO/AVC
Продолжительность : 1 ч. 30 м.
Битрейт : 8484 Кбит/сек
Ширина : 1920 пикселей
Высота : 816 пикселей
Соотношение сторон : 2,35:1
Режим частоты кадров : Постоянный
Частота кадров : 23,976 кадра/сек
Цветовое пространство : YUV
Субдискретизация насыщенности : 4:2:0
Битовая глубина : 8 бит
Тип развёртки : Прогрессивная
Бит/(Пиксели*Кадры) : 0.226
Размер потока : 5,25 Гбайт (91%)
Библиотека кодирования : x264 core 128 r2216M 198a7ea
Настройки программы : cabac=1 / ref=5 / deblock=1:0:0 / analyse=0x3:0x133 / me=umh / subme=10 / psy=1 / psy_rd=1.00:0.00 / mixed_ref=1 / me_range=32 / chroma_me=1 / trellis=2 / 8x8dct=1 / cqm=0 / deadzone=21,11 / fast_pskip=0 / chroma_qp_offset=-2 / threads=4 / lookahead_threads=1 / sliced_threads=0 / nr=0 / decimate=0 / interlaced=0 / bluray_compat=0 / constrained_intra=0 / bframes=10 / b_pyramid=2 / b_adapt=2 / b_bias=0 / direct=3 / weightb=1 / open_gop=0 / weightp=2 / keyint=240 / keyint_min=23 / scenecut=40 / intra_refresh=0 / rc_lookahead=60 / rc=2pass / mbtree=1 / bitrate=8484 / ratetol=1.0 / qcomp=0.60 / qpmin=10 / qpmax=69 / qpstep=4 / cplxblur=20.0 / qblur=0.5 / ip_ratio=1.40 / aq=1:1.00
Default : Да
Forced : Нет

Аудио
Идентификатор : 2
Формат : AC-3
Формат/Информация : Audio Coding 3
Расширение режима : CM (complete main)
Параметр Endianness формата : Big
Идентификатор кодека : A_AC3
Продолжительность : 1 ч. 30 м.
Вид битрейта : Постоянный
Битрейт : 640 Кбит/сек
Каналы : 6 каналов
Расположение каналов : Front: L C R, Side: L R, LFE
Частота : 48,0 КГц
Битовая глубина : 16 бит
Метод сжатия : С потерями
Задержка видео : 59 мс.
Размер потока : 414 Мбайт (7%)
Язык : Russian
Default : Да
Forced : Нет

Меню
00:00:00.000 : en:Chapter 1
00:07:25.694 : en:Chapter 2
00:12:33.294 : en:Chapter 3
00:16:41.792 : en:Chapter 4
00:22:02.279 : en:Chapter 5
00:27:37.572 : en:Chapter 6
00:32:36.536 : en:Chapter 7
00:38:39.317 : en:Chapter 8
00:43:24.518 : en:Chapter 9
00:51:33.215 : en:Chapter 10
00:56:48.780 : en:Chapter 11
01:02:44.635 : en:Chapter 12
01:08:30.356 : en:Chapter 13
01:14:24.501 : en:Chapter 14
01:19:27.845 : en:Chapter 15
01:24:48.666 : en:Chapter 16
x264 [info]: frame I:876 Avg QP:19.57 size:218591
x264 [info]: frame P:28045 Avg QP:21.67 size: 77049
x264 [info]: frame B:101297 Avg QP:23.65 size: 33596
загрузка...
Правила, инструкции, FAQ!!!
Торрент  Добавлен [05 янв 2015, 20:20] Скачать торрент
Скачать торрент
[ Размер 15.03 КБ / Просмотров 11 ]

Статус
Проверен 
 
Размер  5.77 ГБ
Приватный: Нет (DHT включён)
.torrent скачан  61
Как залить торрент? | Как скачать Torrent? | Как смотреть и слушать онлайн?  


     Отправить личное сообщение
   
Страница 1 из 1
Показать сообщения за:  Поле сортировки  
Начать новую тему Ответить на тему

   Похожие торренты   Автор   Ответы   Просмотры   Последнее сообщение 
В этой теме нет новых непрочитанных сообщений. Скачать торрент Алиби / The Alibi (Мэтт Чековски, Курт Маттила) [2006 г., комедия, мелодрама, драма, DVDRip]

в форуме Комедии, Размер: 1.46 ГБ, Здоровье: 100%

Anonymous

0
1|0

41
0

19 фев 2014, 11:41

Anonymous Перейти к последнему сообщению

В этой теме нет новых непрочитанных сообщений. Скачать торрент Проверен (Melodic Hard Rock / Hair Metal) Alibi - Alibi - 1992, MP3 (tracks), 320 kbps

в форуме AOR (Melodic Hard Rock, Arena rock), Размер: 109.24 МБ, Здоровье: 0%

Anonymous

0
0|0

0
0

08 окт 2016, 00:55

Anonymous Перейти к последнему сообщению

В этой теме нет новых непрочитанных сообщений. Скачать торрент Проверен (Power Metal) Cain's Alibi - Cain's Alibi - 1996, MP3, 320 kbps

в форуме Heavy, Power, Progressive (Metal), Размер: 143.87 МБ, Здоровье: 0%

Anonymous

0
0|0

0
0

09 окт 2016, 15:18

Anonymous Перейти к последнему сообщению

В этой теме нет новых непрочитанных сообщений. Скачать торрент Проверен (Melodic Hard Rock / Hair Metal) Alibi - Misdemeanours - 2006, MP3 (tracks), 320 kbps

в форуме AOR (Melodic Hard Rock, Arena rock), Размер: 142.76 МБ, Здоровье: 100%

Anonymous

0
2|1

0
0

08 окт 2016, 12:21

Anonymous Перейти к последнему сообщению

В этой теме нет новых непрочитанных сообщений. Скачать торрент Проверен 300 спартанцев / 300 (2006) BDRip 1080p

в форуме 720p | 1080p, Размер: 7.76 ГБ, Здоровье: 100%

Anonymous

0
82|3

118
785

19 май 2014, 13:08

Anonymous Перейти к последнему сообщению



Сейчас этот форум просматривают: нет зарегистрированных пользователей и гости: 1


Вы не можете начинать темы
Вы не можете отвечать на сообщения
Вы не можете редактировать свои сообщения
Вы не можете удалять свои сообщения
Вы не можете добавлять вложения

Перейти:  

!ВНИМАНИЕ!
 Ресурс не предоставляет электронные версии произведений, а занимается лишь коллекционированием и каталогизацией ссылок, присылаемых и публикуемых на форуме нашими читателями. Если вы являетесь правообладателем какого-либо представленного материала и не желаете чтобы ссылка на него находилась в нашем каталоге, свяжитесь с нами и мы незамедлительно удалим её. Файлы для обмена на трекере предоставлены пользователями сайта, и администрация не несёт ответственности за их содержание. Просьба не заливать файлы, защищенные авторскими правами, а также файлы нелегального содержания!