На всех торрентах на трекере установлена скидка на скачивание в размере 100 процентов(а).
 Возможность скачивания торрента НЕ зависит от ограничений при низком ратио, низком аплоаде, требуемом ратио или требуемом аплоаде.


Начать новую тему Ответить на тему
Статистика раздачи
Размер: 1.61 ГБ | Добавлен: 03 янв 2015, 22:02 | Скачали: 3
Сидеров: 100  [0 байт/сек]    Личеров: 9  [0 байт/сек]
Пред. тема | След. тема 

Автор
Сообщение

СообщениеДобавлено: 03 янв 2015, 22:02 

Жанр: Фантастика, Боевик, Комедия
Производство: США / Trimark Pictures

Описание фильма:
Есть несколько точек во всей Вселенной, где пересекаются разные измерения, и есть люди-мистики, умеющие переходить из одного мира в другой. Наемник Эй-Ти сопровождает красавицу Лору, принцессу из далекой Галактики, и Джо Тэлбота, лос-анджелесского студента, в их мистическом путешествии сквозь время и пространство.
Где бы они ни оказывались, не прекращается их битва со злодеем Феррисом, который хочет овладеть волшебным кристаллом и магическим скипетром, чтобы провести через «перекресток миров» свои армии смерти.

Режиссер: Кришна Рао
Сценарий: Кришна Рао, Раман Рао
Продюсер: Руперт Харви, Ллойд Сеган, Марк Эмин
Актеры: Рутгер Хауэр, Джош Чарльз, Стюарт Уилсон, Андреа Рот, Перри Анзилотти, Джек Блэк, Ричард МакГрегор, Эллен Гир, Беверли Джонсон, Майкл Стэдвек

Продолжительность: 01:31:04
Качество видео: DVDRip
Перевод: Многоголосый закадровый, авторский
Язык субтитров: Отсутствуют



Дата мировой премьеры: 8 января 1997
Дата выхода DVD релиза: 23 августа 2006, «Videogram»

Видеокодек: MPEG-4 AVC/H.264
Битрейт видео: ~2145 Кбит/сек
Размер кадра: 720x544
Аудио 1: Русский, AC3 2.0, 192 Кбит/сек, 48 kHz (Многоголосный закадровый, студия Фортуна-фильм)
Аудио 2: Русский, AC3 2.0, 192 Кбит/сек, 48 kHz (Авторский, П.Карцев)
Отличный фильм и отличные актёры.
Типичный в роли злодея Рутгер Хауэр играет в этом фильме положительную роль. Его персонаж (впрочем как и все его персонажи) очень яркий, по типажу так называемый положительный злодей.
Другой запомнившийся по отрицательным образам актёр Стюар Уилсон играет здесь главного злодея и играет свою роль на отлично.
Ну и отдельно хочется выделить главный женский образ — красивая и яркая Андреа Ротт сыграла свою роль очень живо, что также определённо радует.
General
Unique ID : 196003300704268080863001700462972910557 (0x9374DCD3849BC075B2A4182A4B903BDD)
Complete name : F:\Downloads\Перекресток миров.mkv
Format : Matroska
Format version : Version 4 / Version 2
File size : 1.61 GiB
Duration : 1h 31mn
Overall bit rate : 2 524 Kbps
Encoded date : UTC 2015-01-03 10:42:14
Writing application : mkvmerge v7.0.0 ('Where We Going') 32bit built on Jun 9 2014 15:08:34
Writing library : libebml v1.3.0 + libmatroska v1.4.1
DURATION : 01:31:03.904000000
NUMBER_OF_FRAMES : 170747
NUMBER_OF_BYTES : 131133696
_STATISTICS_WRITING_APP : mkvmerge v7.0.0 ('Where We Going') 32bit built on Jun 9 2014 15:08:34
_STATISTICS_WRITING_DATE_UTC : 2015-01-03 10:42:14
_STATISTICS_TAGS : BPS DURATION NUMBER_OF_FRAMES NUMBER_OF_BYTES

Video
ID : 1
Format : AVC
Format/Info : Advanced Video Codec
Format profile :
Format settings, CABAC : Yes
Format settings, ReFrames : 8 frames
Codec ID : V_MPEG4/ISO/AVC
Duration : 1h 31mn
Bit rate : 2 145 Kbps
Width : 720 pixels
Height : 544 pixels
Display aspect ratio : 4:3
Frame rate mode : Constant
Frame rate : 23.976 fps
Color space : YUV
Chroma subsampling : 4:2:0
Bit depth : 8 bits
Scan type : Progressive
Bits/(Pixel*Frame) : 0.228
Stream size : 1.33 GiB (83%)
Title : Crossworlds
Writing library : x264 core 125 r2208 d9d2288
Encoding settings : cabac=1 / ref=8 / deblock=1:-1:-1 / analyse=0x3:0x133 / me=umh / subme=9 / psy=1 / psy_rd=1.00:0.10 / mixed_ref=1 / me_range=32 / chroma_me=1 / trellis=2 / 8x8dct=1 / cqm=0 / deadzone=21,11 / fast_pskip=0 / chroma_qp_offset=-3 / threads=6 / lookahead_threads=1 / sliced_threads=0 / nr=0 / decimate=1 / interlaced=0 / bluray_compat=0 / constrained_intra=0 / bframes=3 / b_pyramid=2 / b_adapt=2 / b_bias=0 / direct=3 / weightb=1 / open_gop=0 / weightp=2 / keyint=250 / keyint_min=25 / scenecut=40 / intra_refresh=0 / rc_lookahead=60 / rc=2pass / mbtree=1 / bitrate=2145 / ratetol=1.0 / qcomp=0.60 / qpmin=0 / qpmax=69 / qpstep=4 / cplxblur=20.0 / qblur=0.5 / ip_ratio=1.40 / aq=1:1.00
Language : English
Default : Yes
Forced : No

Audio #1
ID : 2
Format : AC-3
Format/Info : Audio Coding 3
Mode extension : CM (complete main)
Format settings, Endianness : Big
Codec ID : A_AC3
Duration : 1h 31mn
Bit rate mode : Constant
Bit rate : 192 Kbps
Channel(s) : 2 channels
Channel positions : Front: L R
Sampling rate : 48.0 KHz
Bit depth : 16 bits
Compression mode : Lossy
Stream size : 125 MiB (8%)
Title : Многоголосый закадровый
Language : Russian
Default : Yes
Forced : No

Audio #2
ID : 3
Format : AC-3
Format/Info : Audio Coding 3
Format profile : Dolby Digital
Mode extension : CM (complete main)
Format settings, Endianness : Big
Codec ID : A_AC3
Duration : 1h 31mn
Bit rate mode : Constant
Bit rate : 192 Kbps
Channel(s) : 2 channels
Channel positions : Front: L R
Sampling rate : 48.0 KHz
Bit depth : 16 bits
Compression mode : Lossy
Stream size : 125 MiB (8%)
Title : Авторский, П.Карцев
Language : Russian
Default : No
Forced : No
Скриншоты:

загрузка...
Правила, инструкции, FAQ!!!
Торрент  Добавлен [03 янв 2015, 22:02] Скачать торрент
Скачать торрент
[ Размер 16.76 КБ / Просмотров 21 ]

Статус
Проверен 
 
Размер  1.61 ГБ
Приватный: Нет (DHT включён)
.torrent скачан  3
Как залить торрент? | Как скачать Torrent? | Как смотреть и слушать онлайн?  


     Отправить личное сообщение
   
Страница 1 из 1
Показать сообщения за:  Поле сортировки  
Начать новую тему Ответить на тему

   Похожие торренты   Автор   Ответы   Просмотры   Последнее сообщение 
В этой теме нет новых непрочитанных сообщений. Скачать торрент Павел Кобылянский | Перекресток миров. Начало [2013] [FB2]

в форуме Фантастика, фэнтези, Размер: 1.78 МБ, Здоровье: 100%

Anonymous

0
12|3

123
2

11 апр 2014, 23:54

Anonymous Перейти к последнему сообщению

В этой теме нет новых непрочитанных сообщений. Скачать торрент Перекресток смерти / True Justice (2011) DVDRip | Лицензия

в форуме Боевики, Размер: 1.37 ГБ, Здоровье: 100%

Anonymous

0
4|0

39
79

26 фев 2014, 14:02

Anonymous Перейти к последнему сообщению

В этой теме нет новых непрочитанных сообщений. Скачать торрент Проверен Книжная серия | Война миров (12 книг) [1996-1999] [FB2]

в форуме Многоавторские сборники, Размер: 15.7 МБ, Здоровье: 62%

Anonymous

0
40|64

123
6

18 авг 2014, 14:35

Anonymous Перейти к последнему сообщению

В этой теме нет новых непрочитанных сообщений. Скачать торрент Проверен Джордж Арнсби Джонс | Паломничество Джеймса. Одиссея внутренних миров (1996) [DOC]

в форуме Эзотерика, гадания, магия, фен-шуй, Размер: 1.14 МБ, Здоровье: 100%

Anonymous

0
1|1

11
0

11 дек 2015, 00:39

Anonymous Перейти к последнему сообщению

В этой теме нет новых непрочитанных сообщений. Скачать торрент Проверен Малиновская Майя - Наследники миров (продолжение серии "Будущее Эл") книга 6, Наследники миров [Малиновская Майя, (ЛИ), 2014 г., 128 kbps, MP3]

в форуме Российская фантастика, фэнтези, мистика, ужасы, фанфики, Размер: 725.83 МБ, Здоровье: 0%

Anonymous

0
0|0

5
0

10 сен 2016, 13:30

Anonymous Перейти к последнему сообщению



Сейчас этот форум просматривают: нет зарегистрированных пользователей и гости: 4


Вы не можете начинать темы
Вы не можете отвечать на сообщения
Вы не можете редактировать свои сообщения
Вы не можете удалять свои сообщения
Вы не можете добавлять вложения

Перейти:  

!ВНИМАНИЕ!
 Ресурс не предоставляет электронные версии произведений, а занимается лишь коллекционированием и каталогизацией ссылок, присылаемых и публикуемых на форуме нашими читателями. Если вы являетесь правообладателем какого-либо представленного материала и не желаете чтобы ссылка на него находилась в нашем каталоге, свяжитесь с нами и мы незамедлительно удалим её. Файлы для обмена на трекере предоставлены пользователями сайта, и администрация не несёт ответственности за их содержание. Просьба не заливать файлы, защищенные авторскими правами, а также файлы нелегального содержания!