На всех торрентах на трекере установлена скидка на скачивание в размере 100 процентов(а).
 Возможность скачивания торрента НЕ зависит от ограничений при низком ратио, низком аплоаде, требуемом ратио или требуемом аплоаде.


Начать новую тему Ответить на тему
Статистика раздачи
Размер: 3.41 ГБ | Добавлен: 03 янв 2015, 17:42 | Скачали: 0
Сидеров: 139  [0 байт/сек]    Личеров: 5  [0 байт/сек]
Пред. тема | След. тема 

Автор
Сообщение

СообщениеДобавлено: 03 янв 2015, 17:42 

Русское название: В упор
Оригинальное название: А bout portant
Год выпуска: 2010
Производство: Франция
Жанр: Боевик, Триллер, Криминал
Язык субтитров: Русские, Английские
Вид субтитров: Вшитые, отключаемые
Перевод: Профессиональный (Многоголосый, закадровый) [Лицензия]


Дата мировой премьеры: 1 ноября 2010, ...

Режиссер: Фред Кавайе
Актеры: Жилль Лелуш, Рошди Зем, Жерар Ланвен, Елена Анайя, Мирей Перье, Клер Перо

Описание фильма:
Профессия Сэмюэля Перрье — спасать людей. Но в этот раз медбрат спас ну совсем «не того» парня. И вот теперь его беременную жену похитили бандиты, чтоб заставить Сэмюэля помочь их пахану свалить из больницы. Чтобы спасти жену и выжить самому, ему предстоит выиграть смертельные гонки на выживание с бандитами и полицейскими не только по улицам Парижа но и под землей.
Продолжительность: 01:24:01
Качество видео: BDRip
Формат: MKV
Видеокодек: MPEG-4 AVC/H.264
Битрейт видео: ~4070 kb/s
Размер кадра: 1280x544
Аудиокодек: AC3 2.0, DTS
Аудио 1: AC3 2.0, 48,0 КГц, 224 Кбит/сек | Русский
Аудио 2: DTS, 48,0 КГц, 6 ch, 1510 Кбит/сек | Оригинал
Общее
Полное имя : D:\V.upor.2010.BDRip.720p.mkv
Формат : Matroska
Версия формата : Version 2
Размер файла : 3,41 Гбайт
Продолжительность : 1 ч. 24 м.
Общий поток : 5803 Кбит/сек

Видео
Идентификатор : 1
Формат : AVC
Формат/Информация : Advanced Video Codec
Профиль формата :
Параметр CABAC формата : Да
Параметр ReFrames формата : 5 кадров
Идентификатор кодека : V_MPEG4/ISO/AVC
Продолжительность : 1 ч. 24 м.
Битрейт : 4070 Кбит/сек
Ширина : 1280 пикселей
Высота : 544 пикселя
Соотношение сторон : 2,35:1
Частота кадров : 24,000 кадра/сек
Цветовое пространство : YUV
Субдискретизация насыщенности : 4:2:0
Битовая глубина : 8 бит
Тип развёртки : Прогрессивная
Бит/(Пиксели*Кадры) : 0.244
Размер потока : 2,32 Гбайт (68%)
Заголовок : .bout.portant.2010.1080p.BluRay.x264.DTS
Язык : French

Аудио #1
Идентификатор : 2
Формат : AC-3
Формат/Информация : Audio Coding 3
Расширение режима : CM (complete main)
Идентификатор кодека : A_AC3
Продолжительность : 1 ч. 24 м.
Вид битрейта : Постоянный
Битрейт : 224 Кбит/сек
Каналы : 2 канала
Расположение каналов : Front: L R
Частота : 48,0 КГц
Битовая глубина : 16 бит
Метод сжатия : С потерями
Размер потока : 135 Мбайт (4%)
Заголовок : DD @ 224 kbs 2.0
Язык : Russian

Аудио #2
Идентификатор : 3
Формат : DTS
Формат/Информация : Digital Theater Systems
Идентификатор кодека : A_DTS
Продолжительность : 1 ч. 24 м.
Вид битрейта : Постоянный
Битрейт : 1510 Кбит/сек
Каналы : 6 каналов
Расположение каналов : Front: L C R, Side: L R, LFE
Частота : 48,0 КГц
Битовая глубина : 24 бит
Метод сжатия : С потерями
Размер потока : 907 Мбайт (26%)
Заголовок : DTS @ 1510 kbs 5.1
Язык : French

Текст #1
Идентификатор : 4
Формат : UTF-8
Идентификатор кодека : S_TEXT/UTF8
Идентификатор кодека/Информация : UTF-8 Plain Text
Заголовок : Full [lingua.pura]
Язык : Russian

Текст #2
Идентификатор : 5
Формат : UTF-8
Идентификатор кодека : S_TEXT/UTF8
Идентификатор кодека/Информация : UTF-8 Plain Text
Заголовок : Full
Язык : English
загрузка...
Правила, инструкции, FAQ!!!
Торрент  Добавлен [03 янв 2015, 17:42] Скачать торрент
Скачать торрент
[ Размер 17.79 КБ / Просмотров 3 ]

Статус
Проверен 
 
Размер  3.41 ГБ
Приватный: Нет (DHT включён)
.torrent скачан  0
Как залить торрент? | Как скачать Torrent? | Как смотреть и слушать онлайн?  


     Отправить личное сообщение
   
Страница 1 из 1
Показать сообщения за:  Поле сортировки  
Начать новую тему Ответить на тему

   Похожие торренты   Автор   Ответы   Просмотры   Последнее сообщение 
В этой теме нет новых непрочитанных сообщений. Скачать торрент Проверен Три часа на побег (В упор) / À bout portant (Point Blank) (2010) BDRip 1080p | P,A,L

в форуме 720p | 1080p, Размер: 7.87 ГБ, Здоровье: 100%

Anonymous

0
36|0

44
1781

26 июл 2014, 07:53

Anonymous Перейти к последнему сообщению

В этой теме нет новых непрочитанных сообщений. Скачать торрент Проверен Три часа на побег / À bout portant (2010) DVDRip

в форуме Боевики, Размер: 1.36 ГБ, Здоровье: 100%

Anonymous

0
65|2

45
3431

26 июл 2014, 07:57

Anonymous Перейти к последнему сообщению

В этой теме нет новых непрочитанных сообщений. Скачать торрент Проверен (Hardcore Punk) Выстрел В Упор - 2 альбома, 1 демо - 2008-2010, MP3, 320 kbps

в форуме Русский Рок, Размер: 137.28 МБ, Здоровье: 0%

Anonymous

0
0|0

2
0

22 авг 2016, 01:46

Anonymous Перейти к последнему сообщению

В этой теме нет новых непрочитанных сообщений. Скачать торрент Проверен Иван Новиков | Руины стреляют в упор (1963) [FB2]

в форуме Классика, современная проза и поэзия, Размер: 6.5 МБ, Здоровье: 0%

Anonymous

0
0|0

9
0

16 янв 2016, 03:26

Anonymous Перейти к последнему сообщению

В этой теме нет новых непрочитанных сообщений. Скачать торрент Проверен Feuertanz Festival 2010 (Ignis Fatuu, Folkstone, Wutas, Fejd, Furunkulus, Feuerschwanz, Omnia, Subway to Sally, Eluveitie) [2010, Folk Metal, BDRip 720p]

в форуме Концерты (HD-Video), Размер: 5.42 ГБ, Здоровье: 100%

Anonymous

0
7|2

1
0

23 окт 2016, 16:06

Anonymous Перейти к последнему сообщению



Сейчас этот форум просматривают: нет зарегистрированных пользователей и гости: 3


Вы не можете начинать темы
Вы не можете отвечать на сообщения
Вы не можете редактировать свои сообщения
Вы не можете удалять свои сообщения
Вы не можете добавлять вложения

Перейти:  

!ВНИМАНИЕ!
 Ресурс не предоставляет электронные версии произведений, а занимается лишь коллекционированием и каталогизацией ссылок, присылаемых и публикуемых на форуме нашими читателями. Если вы являетесь правообладателем какого-либо представленного материала и не желаете чтобы ссылка на него находилась в нашем каталоге, свяжитесь с нами и мы незамедлительно удалим её. Файлы для обмена на трекере предоставлены пользователями сайта, и администрация не несёт ответственности за их содержание. Просьба не заливать файлы, защищенные авторскими правами, а также файлы нелегального содержания!