На всех торрентах на трекере установлена скидка на скачивание в размере 100 процентов(а).
 Возможность скачивания торрента НЕ зависит от ограничений при низком ратио, низком аплоаде, требуемом ратио или требуемом аплоаде.


Начать новую тему Ответить на тему
Статистика раздачи
Размер: 2.15 ГБ | Добавлен: 09 янв 2015, 23:28 | Скачали: 0
Сидеров: 0  [0 байт/сек]    Личеров: 0  [0 байт/сек]
Пред. тема | След. тема 

Автор
Сообщение

СообщениеДобавлено: 03 янв 2015, 14:44 

Жанр: Боевик, триллер, комедия, криминал
Выпущено: Норвегия, Швеция, Дания, Film i Väst, Paradox, Paradox Film 2

Описание фильма:
Норвегия. Зима. Трудолюбивый Нилс управляет мощным плужным снегоочистителем, который очищает дороги и горные проходы негостеприимного обледенелого ландшафта местности, где он сам живёт. Совсем недавно он был признан жителем года за свои старания, а теперь получает известие о том, что его сын погиб в результате передозировки героина. Отказываясь верить в правдивость официальной версии смерти своего сына, он начинает тайное расследование с целью найти предполагаемых убийц парня. Однако дальнейшие события разворачиваются самым непредсказуемым образом, и ему приходится стать таинственным героем, внушающим страх в преступном мире.

Режиссер: Ганс Петтер Моланд
Актеры: Стеллан Скарсгард, Якоб Офтебро, Кристофер Хивджу, Биргитта Йорт Сёренсен, Тобиас Зантельман, Бруно Ганц, Сергей Трифунович, Пал Сверре Валхейм Хэйген, Петер Андерссон, Андерс Баасмо Кристиансен

Перевод: Многоголосый закадровый
Субтитры: отсутствуют



Дата мировой премьеры: 10 февраля 2014
Дата российской премьеры: 23 октября 2014, «Русский Репортаж»

Продолжительность: 01:51:47
Качество видео: WEB-DL [H.264/720p-LQ]

Видеокодек: MPEG-4 AVC/H.264
Битрейт видео: ~2000 Кбит/с
Размер кадра: 1280 x 532
Аудио #1: Русский, AC3, 2.0, 384 Кбит/с | "Позитив"
Аудио #2: Норвежский, AC3, 5.1, 384 Кбит/с
• Берлинский кинофестиваль, 2014 год •
Номинации (1):
• Золотой Медведь
Общее
Уникальный идентификатор : 230860873482558805665061165030764212448 (0xADAE2FDA2B46042AB8558796594470E0)
Полное имя : Kraftidioten.2014.P.WEB-DL.720p.mkv
Формат : Matroska
Версия формата : Version 2
Размер файла : 2,15 Гбайт
Продолжительность : 1 ч. 52 м.
Общий поток : 2738 Кбит/сек
Дата кодирования : UTC 2015-01-02 10:45:01
Программа кодирования : mkvmerge v7.4.0 ('Circles') 64bit built on Dec 12 2014 12:19:56
Библиотека кодирования : libebml v1.3.0 + libmatroska v1.4.1
DURATION : 01:52:19.392000000
NUMBER_OF_FRAMES : 210606
NUMBER_OF_BYTES : 323490816
_STATISTICS_WRITING_APP : mkvmerge v7.4.0 ('Circles') 64bit built on Dec 12 2014 12:19:56
_STATISTICS_WRITING_DATE_UTC : 2015-01-02 10:45:01
_STATISTICS_TAGS : BPS DURATION NUMBER_OF_FRAMES NUMBER_OF_BYTES

Видео
Идентификатор : 1
Формат : AVC
Формат/Информация : Advanced Video Codec
Профиль формата :
Параметр CABAC формата : Да
Параметр ReFrames формата : 3 кадра
Идентификатор кодека : V_MPEG4/ISO/AVC
Продолжительность : 1 ч. 52 м.
Битрейт : 1987 Кбит/сек
Ширина : 1280 пикселей
Высота : 532 пикселя
Соотношение сторон : 2,40:1
Режим частоты кадров : Постоянный
Частота кадров : 25,000 кадров/сек
Цветовое пространство : YUV
Субдискретизация насыщенности : 4:2:0
Битовая глубина : 8 бит
Тип развёртки : Прогрессивная
Бит/(Пиксели*Кадры) : 0.117
Размер потока : 1,50 Гбайт (70%)
Библиотека кодирования : x264 core 142
Настройки программы : cabac=1 / ref=4 / deblock=1:0:0 / analyse=0x3:0x133 / me=hex / subme=7 / psy=1 / psy_rd=1.00:0.00 / mixed_ref=1 / me_range=16 / chroma_me=1 / trellis=2 / 8x8dct=1 / cqm=0 / deadzone=21,11 / fast_pskip=1 / chroma_qp_offset=-2 / threads=4 / lookahead_threads=1 / sliced_threads=0 / nr=0 / decimate=1 / interlaced=0 / bluray_compat=0 / constrained_intra=0 / bframes=6 / b_pyramid=1 / b_adapt=2 / b_bias=0 / direct=3 / weightb=1 / open_gop=0 / weightp=2 / keyint=100 / keyint_min=51 / scenecut=0 / intra_refresh=0 / rc_lookahead=50 / rc=2pass / mbtree=1 / bitrate=1987 / ratetol=1.0 / qcomp=0.60 / qpmin=0 / qpmax=69 / qpstep=4 / cplxblur=20.0 / qblur=0.5 / vbv_maxrate=2583 / vbv_bufsize=2980 / nal_hrd=none / filler=0 / ip_ratio=1.40 / aq=1:1.00
Язык : English
Default : Да
Forced : Нет

Аудио #1
Идентификатор : 2
Формат : AC-3
Формат/Информация : Audio Coding 3
Расширение режима : CM (complete main)
Параметр Endianness формата : Big
Идентификатор кодека : A_AC3
Продолжительность : 1 ч. 52 м.
Вид битрейта : Постоянный
Битрейт : 384 Кбит/сек
Каналы : 2 канала
Расположение каналов : Front: L R
Частота : 48,0 КГц
Битовая глубина : 16 бит
Метод сжатия : С потерями
Размер потока : 309 Мбайт (14%)
Язык : Russian
Default : Да
Forced : Нет

Аудио #2
Идентификатор : 3
Формат : AC-3
Формат/Информация : Audio Coding 3
Расширение режима : CM (complete main)
Параметр Endianness формата : Big
Идентификатор кодека : A_AC3
Продолжительность : 1 ч. 52 м.
Вид битрейта : Постоянный
Битрейт : 384 Кбит/сек
Каналы : 6 каналов
Расположение каналов : Front: L C R, Side: L R, LFE
Частота : 48,0 КГц
Битовая глубина : 16 бит
Метод сжатия : С потерями
Размер потока : 309 Мбайт (14%)
Язык : Norwegian
Default : Нет
Forced : Нет
Скриншоты:
[center]
загрузка...
Правила, инструкции, FAQ!!!
Торрент  Добавлен [09 янв 2015, 23:28] Скачать торрент
Скачать торрент
[ Размер 11.5 КБ / Просмотров 8 ]

Статус
Проверен 
 
Размер  2.15 ГБ
Приватный: Нет (DHT включён)
.torrent скачан  0
Как залить торрент? | Как скачать Torrent? | Как смотреть и слушать онлайн?  


     Отправить личное сообщение
   
Страница 1 из 1
Показать сообщения за:  Поле сортировки  
Начать новую тему Ответить на тему

   Похожие торренты   Автор   Ответы   Просмотры   Последнее сообщение 
В этой теме нет новых непрочитанных сообщений. Скачать торрент Проверен Дурацкое дело нехитрое / Kraftidioten / In Order of Disappearance (2014) BDRip [576p] iPad

в форуме Фильмы для iPod, iPhone, iPad, Размер: 1.62 ГБ, Здоровье: 100%

Anonymous

0
8|1

21
0

13 сен 2015, 01:09

Anonymous Перейти к последнему сообщению

В этой теме нет новых непрочитанных сообщений. Скачать торрент Проверен Дурацкое дело нехитрое / Kraftidioten (2014) DVDRip | P

в форуме Боевики, Размер: 1.46 ГБ, Здоровье: 100%

Anonymous

0
2274|40

43
9774

09 ноя 2014, 09:06

Anonymous Перейти к последнему сообщению

В этой теме нет новых непрочитанных сообщений. Скачать торрент Проверен Дурацкое дело нехитрое / Kraftidioten (2014) BDRip 1080p | P

в форуме 720p | 1080p, Размер: 5.76 ГБ, Здоровье: 100%

Гость

0
298|41

66
556

26 май 2015, 23:37

Гость Перейти к последнему сообщению

В этой теме нет новых непрочитанных сообщений. Скачать торрент Проверен Гарднер, Эрл Стенли - Сборник.Гиблое дело - Дело о нерешительной хостессе.Дело о тайне приемной дочери [Николай Козий, 1993, 32 kbps]

в форуме Детектив и Боевики, Размер: 268.4 МБ, Здоровье: 100%

Anonymous

0
3|1

0
0

20 ноя 2016, 10:24

Anonymous Перейти к последнему сообщению

В этой теме нет новых непрочитанных сообщений. Скачать торрент Проверен (Heavy Metal) The Heretic Order - All Hail The Order - 2015, MP3, 320 kbps

в форуме Heavy, Power, Progressive (Metal), Размер: 121.8 МБ, Здоровье: 0%

Anonymous

0
0|0

2
0

09 окт 2016, 16:23

Anonymous Перейти к последнему сообщению



Сейчас этот форум просматривают: нет зарегистрированных пользователей и гости: 3


Вы не можете начинать темы
Вы не можете отвечать на сообщения
Вы не можете редактировать свои сообщения
Вы не можете удалять свои сообщения
Вы не можете добавлять вложения

Перейти:  

!ВНИМАНИЕ!
 Ресурс не предоставляет электронные версии произведений, а занимается лишь коллекционированием и каталогизацией ссылок, присылаемых и публикуемых на форуме нашими читателями. Если вы являетесь правообладателем какого-либо представленного материала и не желаете чтобы ссылка на него находилась в нашем каталоге, свяжитесь с нами и мы незамедлительно удалим её. Файлы для обмена на трекере предоставлены пользователями сайта, и администрация не несёт ответственности за их содержание. Просьба не заливать файлы, защищенные авторскими правами, а также файлы нелегального содержания!