На всех торрентах на трекере установлена скидка на скачивание в размере 100 процентов(а).
 Возможность скачивания торрента НЕ зависит от ограничений при низком ратио, низком аплоаде, требуемом ратио или требуемом аплоаде.


Начать новую тему Ответить на тему
Статистика раздачи
Размер: 10.63 ГБ | Добавлен: 02 янв 2015, 23:07 | Скачали: 2
Сидеров: 125  [0 байт/сек]    Личеров: 12  [0 байт/сек]
Пред. тема | След. тема 

Автор
Сообщение

СообщениеДобавлено: 02 янв 2015, 23:07 

Год выпуска: 2013
Жанр: Драма
Производство: Великобритания, США / IM Global, Shoebox Films

Описание фильма:
Иван Лок примерный семьянин и успешный руководитель строительства. Завтрашний день — один из важнейших в его жизни, его ждет карьерный рост. Но вечером раздается телефонный звонок, который перевернет его жизнь с ног на голову.

Режиссер: Стивен Найт
Актеры: Том Харди

Продолжительность: 01:24:50
Качество видео: BDRip
Перевод: Дублированный (Чистый звук), Многоголосый закадровый, Одноголосый закадровый
Язык субтитров: Русский, Английский
Вид субтитров: Вшитые отключаемые



Дата мировой премьеры: 2 сентября 2013
Дата российской премьеры: 26 июня 2014, «West»

Видеокодек: MPEG-4 AVC/H.264
Битрейт видео: ~13,1 Mbps
Размер кадра: 1920 х 802
Аудио 1: Русский, AC3 2.0, 384 kbps, 48 kHz (DUB, Line)
Аудио 2: Русский, AC3 5.1, 384 kbps, 48 kHz (MVO, BaibaKo)
Аудио 3: Русский, DTS 5.1, 1509 kbps, 48 kHz (MVO, Гараж Дубляж)
Аудио 4: Русский, AC3 5.1, 640 kbps, 48 kHz (VO, R.A.I.M)
Аудио 5: Английский, 5.1, 1509 kbps, 48 kHz (Original)
Сэмпл: Ссылка
Европейская киноакадемия, 2014 год
Победитель (2):
Лучший монтаж
Приз жюри за лучший монтаж

Номинации (3):
Лучшая мужская роль (Том Харди)
Лучший режиссер (Стивен Найт)
Лучшая работа сценариста (Стивен Найт)
• BMW, на которой едет Лок, оборудована системой предупреждающей о том, что осталось мало бензина, и она издавала сигналы всякий раз, когда топливо оказывалось на исходе. Звук этой системы прерывал речь Тома Харди во время дублей, но режиссер Стивен Найт все же оставил в фильме кадры, запечатлевшие негодование актера во время таких прерываний, а предупреждающий сигнал заменил сообщением о том, что у героя есть входящий звонок по второй линии.
• Простуда Лока появилась в сценарии из-за того, что Том Харди на самом деле простудился во время продакшна.
• У фильма было необычное расписание съемок. Сцены с Томом Харди снимались по два захода за ночь, как если бы фильм снимался одним дублем. При этом остальные актеры находились в комнате отеля и просто разговаривали с ним по телефону.
• Фильм был снят за 5 ночей с использованием трёх камер.
• Автомобиль заводится дважды. Первый раз это видно по тахометру, второй раз — слышно.
Общее
Уникальный идентификатор : 189409693473549289796643215401277258244 (0x8E7EFAE404D3B5B09953C308DDC0FA04)
Полное имя : D:\Films\Locke.2013.1080p.BDRip.mkv
Формат : Matroska
Версия формата : Version 2
Размер файла : 10,6 Гбайт
Продолжительность : 1 ч. 24 м.
Общий поток : 17,9 Мбит/сек
Дата кодирования : UTC 2015-01-01 09:15:51
Программа кодирования : mkvmerge v5.2.0 ('I can't explain') built on Dec 18 2011 18:12:03
Библиотека кодирования : libebml v1.2.3 + libmatroska v1.3.0

Видео
Идентификатор : 1
Формат : AVC
Формат/Информация : Advanced Video Codec
Профиль формата :
Параметр CABAC формата : Да
Параметр ReFrames формата : 5 кадров
Идентификатор кодека : V_MPEG4/ISO/AVC
Продолжительность : 1 ч. 24 м.
Битрейт : 13,1 Мбит/сек
Ширина : 1920 пикселей
Высота : 802 пикселя
Соотношение сторон : 2,40:1
Режим частоты кадров : Постоянный
Частота кадров : 23,976 кадра/сек
Цветовое пространство : YUV
Субдискретизация насыщенности : 4:2:0
Битовая глубина : 8 бит
Тип развёртки : Прогрессивная
Бит/(Пиксели*Кадры) : 0.356
Размер потока : 7,79 Гбайт (73%)
Библиотека кодирования : x264 core 142 r2453kMod ea0ca51
Настройки программы : cabac=1 / ref=5 / deblock=1:-3:-3 / analyse=0x3:0x133 / me=esa / subme=10 / psy=1 / fade_compensate=0.00 / psy_rd=1.08:0.00 / mixed_ref=1 / me_range=24 / chroma_me=1 / trellis=2 / 8x8dct=1 / cqm=0 / deadzone=21,11 / fast_pskip=0 / chroma_qp_offset=-2 / threads=12 / lookahead_threads=3 / sliced_threads=0 / nr=0 / decimate=0 / interlaced=0 / bluray_compat=0 / constrained_intra=0 / fgo=0 / bframes=10 / b_pyramid=2 / b_adapt=2 / b_bias=0 / direct=3 / weightb=1 / open_gop=0 / weightp=2 / keyint=250 / keyint_min=23 / scenecut=40 / intra_refresh=0 / rc=crf / mbtree=0 / crf=18.0000 / qcomp=0.75 / qpmin=0 / qpmax=69 / qpstep=4 / ip_ratio=1.20 / pb_ratio=1.10 / aq=1:0.82
Язык : English
Default : Да
Forced : Нет

Аудио #1
Идентификатор : 2
Формат : AC-3
Формат/Информация : Audio Coding 3
Расширение режима : CM (complete main)
Параметр Endianness формата : Big
Идентификатор кодека : A_AC3
Продолжительность : 1 ч. 24 м.
Вид битрейта : Постоянный
Битрейт : 384 Кбит/сек
Каналы : 2 канала
Расположение каналов : Front: L R
Частота : 48,0 КГц
Битовая глубина : 16 бит
Метод сжатия : С потерями
Размер потока : 233 Мбайт (2%)
Заголовок : DUB, Line
Язык : Russian
Default : Да
Forced : Нет

Аудио #2
Идентификатор : 3
Формат : AC-3
Формат/Информация : Audio Coding 3
Расширение режима : CM (complete main)
Параметр Endianness формата : Big
Идентификатор кодека : A_AC3
Продолжительность : 1 ч. 24 м.
Вид битрейта : Постоянный
Битрейт : 384 Кбит/сек
Каналы : 6 каналов
Расположение каналов : Front: L C R, Side: L R, LFE
Частота : 48,0 КГц
Битовая глубина : 16 бит
Метод сжатия : С потерями
Размер потока : 233 Мбайт (2%)
Заголовок : MVO, BaibaKo
Язык : Russian
Default : Нет
Forced : Нет

Аудио #3
Идентификатор : 4
Формат : DTS
Формат/Информация : Digital Theater Systems
Режим : 16
Параметр Endianness формата : Big
Идентификатор кодека : A_DTS
Продолжительность : 1 ч. 24 м.
Вид битрейта : Постоянный
Битрейт : 1509 Кбит/сек
Каналы : 6 каналов
Расположение каналов : Front: L C R, Side: L R, LFE
Частота : 48,0 КГц
Битовая глубина : 24 бит
Метод сжатия : С потерями
Размер потока : 916 Мбайт (8%)
Заголовок : MVO, Гараж Дубляж
Язык : Russian
Default : Нет
Forced : Нет

Аудио #4
Идентификатор : 5
Формат : AC-3
Формат/Информация : Audio Coding 3
Расширение режима : CM (complete main)
Параметр Endianness формата : Big
Идентификатор кодека : A_AC3
Продолжительность : 1 ч. 24 м.
Вид битрейта : Постоянный
Битрейт : 640 Кбит/сек
Каналы : 6 каналов
Расположение каналов : Front: L C R, Side: L R, LFE
Частота : 48,0 КГц
Битовая глубина : 16 бит
Метод сжатия : С потерями
Размер потока : 388 Мбайт (4%)
Заголовок : VO, R.A.I.M
Язык : Russian
Default : Нет
Forced : Нет

Аудио #5
Идентификатор : 6
Формат : DTS
Формат/Информация : Digital Theater Systems
Режим : 16
Параметр Endianness формата : Big
Идентификатор кодека : A_DTS
Продолжительность : 1 ч. 24 м.
Вид битрейта : Постоянный
Битрейт : 1509 Кбит/сек
Каналы : 6 каналов
Расположение каналов : Front: L C R, Side: L R, LFE
Частота : 48,0 КГц
Битовая глубина : 24 бит
Метод сжатия : С потерями
Размер потока : 916 Мбайт (8%)
Заголовок : Original
Язык : English
Default : Нет
Forced : Нет

Текст #1
Идентификатор : 7
Формат : UTF-8
Идентификатор кодека : S_TEXT/UTF8
Идентификатор кодека/Информация : UTF-8 Plain Text
Язык : Russian
Default : Нет
Forced : Нет

Текст #2
Идентификатор : 8
Формат : UTF-8
Идентификатор кодека : S_TEXT/UTF8
Идентификатор кодека/Информация : UTF-8 Plain Text
Заголовок : Full
Язык : English
Default : Нет
Forced : Нет

Текст #3
Идентификатор : 9
Формат : UTF-8
Идентификатор кодека : S_TEXT/UTF8
Идентификатор кодека/Информация : UTF-8 Plain Text
Заголовок : SDH
Язык : English
Default : Нет
Forced : Нет

Текст #4
Идентификатор : 10
Формат : UTF-8
Идентификатор кодека : S_TEXT/UTF8
Идентификатор кодека/Информация : UTF-8 Plain Text
Заголовок : SDH, Colored
Язык : English
Default : Нет
Forced : Нет

Меню
00:00:00.000 : en:00:00:00.000
00:03:38.468 : en:00:03:38.468
00:09:22.729 : en:00:09:22.729
00:15:00.983 : en:00:15:00.983
00:21:20.529 : en:00:21:20.529
00:26:00.225 : en:00:26:00.225
00:30:32.039 : en:00:30:32.039
00:37:23.867 : en:00:37:23.867
00:43:03.539 : en:00:43:03.539
00:49:57.411 : en:00:49:57.411
00:56:08.407 : en:00:56:08.407
00:59:37.532 : en:00:59:37.532
01:04:29.657 : en:01:04:29.657
01:10:05.660 : en:01:10:05.660
01:15:32.153 : en:01:15:32.153
01:18:31.040 : en:01:18:31.040

Скриншоты:

загрузка...
Правила, инструкции, FAQ!!!
Торрент  Добавлен [02 янв 2015, 23:07] Скачать торрент
Скачать торрент
[ Размер 27.25 КБ / Просмотров 7 ]

Статус
Проверен 
 
Размер  10.63 ГБ
Приватный: Нет (DHT включён)
.torrent скачан  2
Как залить торрент? | Как скачать Torrent? | Как смотреть и слушать онлайн?  


     Отправить личное сообщение
   
Страница 1 из 1
Показать сообщения за:  Поле сортировки  
Начать новую тему Ответить на тему

   Похожие торренты   Автор   Ответы   Просмотры   Последнее сообщение 
В этой теме нет новых непрочитанных сообщений. Скачать торрент Кот Гром и заколдованный дом / The House of Magic (2013) BDRip [1080p] [Line]

в форуме Зарубежные мультфильмы (HD Video), Размер: 6.06 ГБ, Здоровье: 0%

Anonymous

0
0|0

67
0

17 май 2014, 06:14

Anonymous Перейти к последнему сообщению

В этой теме нет новых непрочитанных сообщений. Лок / Locke (2013) BDRip 720p | L1

в форуме Новинки кино, Размер: 4.25 ГБ, Здоровье: 100%

Anonymous

0
77|0

192
4132

01 авг 2014, 21:49

Anonymous Перейти к последнему сообщению

В этой теме нет новых непрочитанных сообщений. Скачать торрент Хоббит: Пустошь Смауга / The Hobbit: The Desolation of Smaug (2013) BDRip [1080p] 3D [Горизонтальная анаморфная стереопара] [Line]

в форуме HD-Video в 3D, Размер: 15.98 ГБ, Здоровье: 100%

Anonymous

0
37|2

84
1

22 мар 2014, 09:01

Anonymous Перейти к последнему сообщению

В этой теме нет новых непрочитанных сообщений. Скачать торрент Проверен [iPad] Лок / Locke (Стивен Найт / Steven Knight ) [2013, США, Триллер, драма, BDRip, SD (576p)] MVO + Original + sub (rus, eng)

в форуме Фильмы для iPod, iPhone, iPad, Размер: 1.46 ГБ, Здоровье: 100%

Гость

0
38|13

34
0

12 май 2015, 00:12

Гость Перейти к последнему сообщению

В этой теме нет новых непрочитанных сообщений. Скачать торрент Проверен Саботаж / Sabotage (2014) BDRip [1080p] [Line]

в форуме 720p | 1080p, Размер: 7.94 ГБ, Здоровье: 100%

Anonymous

0
50|1

28
0

11 июл 2014, 23:31

Anonymous Перейти к последнему сообщению



Сейчас этот форум просматривают: нет зарегистрированных пользователей и гости: 2


Вы не можете начинать темы
Вы не можете отвечать на сообщения
Вы не можете редактировать свои сообщения
Вы не можете удалять свои сообщения
Вы не можете добавлять вложения

Перейти:  

!ВНИМАНИЕ!
 Ресурс не предоставляет электронные версии произведений, а занимается лишь коллекционированием и каталогизацией ссылок, присылаемых и публикуемых на форуме нашими читателями. Если вы являетесь правообладателем какого-либо представленного материала и не желаете чтобы ссылка на него находилась в нашем каталоге, свяжитесь с нами и мы незамедлительно удалим её. Файлы для обмена на трекере предоставлены пользователями сайта, и администрация не несёт ответственности за их содержание. Просьба не заливать файлы, защищенные авторскими правами, а также файлы нелегального содержания!