На всех торрентах на трекере установлена скидка на скачивание в размере 100 процентов(а).
 Возможность скачивания торрента НЕ зависит от ограничений при низком ратио, низком аплоаде, требуемом ратио или требуемом аплоаде.


Начать новую тему Ответить на тему
Статистика раздачи
Размер: 3.84 ГБ | Добавлен: 02 янв 2015, 12:00 | Скачали: 94
Сидеров: 152  [0 байт/сек]    Личеров: 8  [0 байт/сек]
Пред. тема | След. тема 

Автор
Сообщение

СообщениеДобавлено: 02 янв 2015, 12:00 

Год выпуска: 2014
Производство: США
Жанр: Комедия
Продолжительность: 01:48:15

Перевод: Многоголосый закадровый (Пиратская студия)
Оригинальная аудиодорожка: Есть
Cубтитры: Вшитые не отключаемые
Режиссер: Бобби Фаррелли
Сценарий: Шон Андерс, Джон Моррис, Питер Фаррелли
Продюсер: Риза Азиз, Бобби Фаррелли, Питер Фаррелли
Оператор: Мэтью Ф. Леонетти
Композитор: Empire of the Sun
Художник: Аарон Осборн, Карен Патч, Дженнифер М. Джентиле
Монтаж: Стивен Раш
Актеры: Джим Керри, Джефф Дэниелс, Роб Риггл, Лори Холден, Рэйчел Мелвин, Кэтлин Тёрнер, Стив Том, Дон Лейк, Патриция Френч, Грегори Фиэрс

Бюджет: $40 000 000
Сборы в США: $84 789 725
Сборы в мире: + $59 474 000 = $144 263 725

Мировая премьера: 7 ноября 2014
Премьера (РФ): 22 января 2015, «West»



Описание: Гарри Данн и Ллойд Кристмас отправляются в путешествие, чтобы разыскать ребенка Гарри, о существовании которого он не подозревал.
Качество: WEBRip 720p
Тип: HD (720p)
Контейнер: M4V
Видео: H.264, 1280x692, 1.85:1, 4 000 Kbps, 24.000 fps

Аудио 1: Русский/Многоголосый закадровый (Пиратская студия), AAC / 2.0 / 182 Kbps / 48.0 KHz
Аудио 2: Русский/Многоголосый закадровый (Пиратская студия), AC-3 / 5.1 / 384 Kbps / 48.0 KHz
Аудио 3: Английский/Оригинальная дорожка , AAC / 2.0 / 112 Kbps / 48.0 KHz
Аудио 4: Английский/Оригинальная дорожка , AC-3 / 2.0 / 384 Kbps / 48.0 KHz

Язык субтитров: Корейский
Вид субтитров: Вшитые не отключаемые
Код:
Код:
Sort Name: Dumb and Dumber To
XID: Apple:vendor_id:2014-645087
contentID: 933949305
Copyright: © 2014 Universal Studios. All Rights Reserved.
Screenwriters: Шон Андерс, Джон Моррис, Питер Фаррелли
Producers: Риза Азиз, Бобби Фаррелли, Питер Фаррелли
Director: Питер Фаррелли, Бобби Фаррелли
Cast: Джим Керри, Джефф Дэниелс, Роб Риггл, Лори Холден, Рэйчел Мелвин, Кэтлин Тёрнер, Стив Том, Дон Лейк, Патриция Френч, Грегори Фиэрс
Studio: Universal Pictures
Rating: 131
Long Description: Гарри Данн и Ллойд Кристмас отправляются в путешествие, чтобы разыскать ребенка Гарри, о существовании которого он не подозревал.
Description: Гарри Данн и Ллойд Кристмас отправляются в путешествие, чтобы разыскать ребенка Гарри, о существовании которого он не подозревал.
Release Date: 2014-11-07T08:00:00Z
Genre: Comedy
Artist: Peter Farrelly & Bobby Farrelly
Name: Dumb and Dumber To

Код:
Код:
General
Complete name                            : /Users/imac/HandBrake/Dumb.And.Dumber.2.WEBRip.720p.m4v
Format                                   : MPEG-4
Codec ID                                 : M4V
File size                                : 3.84 GiB
Duration                                 : 1h 48mn
Overall bit rate mode                    : Variable
Overall bit rate                         : 5 076 Kbps
Movie name                               : Dumb and Dumber To
Performer                                : Peter Farrelly & Bobby Farrelly
Genre                                    : Comedy
Recorded date                            : UTC 2014-11-07 08:00:00
Encoded date                             : UTC 2014-12-30 21:52:34
Tagged date                              : UTC 2015-01-01 20:55:56
Copyright                                : © 2014 Universal Studios. All Rights Reserved.
Cover                                    : Yes
sonm                                     : Dumb and Dumber To
desc                                     : Гарри Данн и Ллойд Кристмас отправляются в путешествие, чтобы разыскать ребенка Гарри, о существовании которого он не подозревал.
ldes                                     : Гарри Данн и Ллойд Кристмас отправляются в путешествие, чтобы разыскать ребенка Гарри, о существовании которого он не подозревал.
hdvd                                     : 1
stik                                     : 9
rtng                                     : 0
cnID                                     : 933949305
xid                                      : Apple:vendor_id:2014-645087
iTunEXTC                                 : uk-movie|15|350|
iTunMOVI                                 : <?xml version=\"1.0\" encoding=\"UTF-8\"?> / <!DOCTYPE plist PUBLIC \"-/Apple/DTD PLIST 1.0/EN\" \"http:/www.apple.com/DTDs/PropertyList-1.0.dtd\"> / <plist version=\"1.0\"> / <dict> /   <key>cast</key> /   <array> /     <dict> /       <key>name</key> /       <string>Джим Керри</string> /     </dict> /     <dict> /       <key>name</key> /       <string>Джефф Дэниелс</string> /     </dict> /     <dict> /       <key>name</key> /       <string>Роб Риггл</string> /     </dict> /     <dict> /       <key>name</key> /       <string>Лори Холден</string> /     </dict> /     <dict> /       <key>name</key> /       <string>Рэйчел Мелвин</string> /     </dict> /     <dict> /       <key>name</key> /       <string>Кэтлин Тёрнер</string> /     </dict> /     <dict> /       <key>name</key> /       <string>Стив Том</string> /     </dict> /     <dict> /       <key>name</key> /       <string>Дон Лейк</string> /     </dict> /     <dict> /       <key>name</key> /       <string>Патриция Френч</string> /     </dict> /     <dict> /       <key>name</key> /       <string>Грегори Фиэрс</string> /     </dict> /   </array> /   <key>directors</key> /   <array> /     <dict> /       <key>name</key> /       <string>Питер Фаррелли</string> /     </dict> /     <dict> /       <key>name</key> /       <string>Бобби Фаррелли</string> /     </dict> /   </array> /   <key>producers</key> /   <array> /     <dict> /       <key>name</key> /       <string>Риза Азиз</string> /     </dict> /     <dict> /       <key>name</key> /       <string>Бобби Фаррелли</string> /     </dict> /     <dict> /       <key>name</key> /       <string>Питер Фаррелли</string> /     </dict> /   </array> /   <key>screenwriters</key> /   <array> /     <dict> /       <key>name</key> /       <string>Шон Андерс</string> /     </dict> /     <dict> /       <key>name</key> /       <string>Джон Моррис</string> /     </dict> /     <dict> /       <key>name</key> /       <string>Питер Фаррелли</string> /     </dict> /   </array> /   <key>studio</key> /   <string>Universal Pictures</string> / </dict> / </plist>

Video
ID                                       : 1
Format                                   : AVC
Format/Info                              : Advanced Video Codec
Format profile                           :
Format settings, CABAC                   : Yes
Format settings, ReFrames                : 4 frames
Codec ID                                 : avc1
Codec ID/Info                            : Advanced Video Coding
Duration                                 : 1h 48mn
Bit rate                                 : 4 000 Kbps
Maximum bit rate                         : 22.6 Mbps
Width                                    : 1 280 pixels
Height                                   : 692 pixels
Display aspect ratio                     : 1.85:1
Frame rate mode                          : Constant
Frame rate                               : 24.000 fps
Color space                              : YUV
Chroma subsampling                       : 4:2:0
Bit depth                                : 8 bits
Scan type                                : Progressive
Bits/(Pixel*Frame)                       : 0.188
Stream size                              : 3.03 GiB (79%)
Title                                    : Dumb.And.Dumber.To.2014.P.WEBRip.720p.ELEKTRI4KA [3imeMachi9e]
Writing library                          : x264 core 142 r2491M 24e4fed
Encoding settings                        : cabac=1 / ref=4 / deblock=1:-1:-1 / analyse=0x3:0x113 / me=umh / subme=7 / psy=1 / psy_rd=1.00:0.15 / mixed_ref=1 / me_range=16 / chroma_me=1 / trellis=1 / 8x8dct=1 / cqm=0 / deadzone=21,11 / fast_pskip=1 / chroma_qp_offset=-3 / threads=32 / lookahead_threads=2 / sliced_threads=0 / nr=0 / decimate=1 / interlaced=0 / bluray_compat=0 / constrained_intra=0 / bframes=3 / b_pyramid=2 / b_adapt=2 / b_bias=0 / direct=3 / weightb=1 / open_gop=0 / weightp=2 / keyint=250 / keyint_min=25 / scenecut=40 / intra_refresh=0 / rc_lookahead=50 / rc=abr / mbtree=1 / bitrate=4000 / ratetol=1.0 / qcomp=0.60 / qpmin=0 / qpmax=69 / qpstep=4 / vbv_maxrate=31250 / vbv_bufsize=31250 / nal_hrd=none / filler=0 / ip_ratio=1.40 / aq=1:1.00
Language                                 : Korean
Encoded date                             : UTC 2014-12-30 21:52:34
Tagged date                              : UTC 2014-12-30 21:53:43

Audio #1
ID                                       : 2
Format                                   : AAC
Format/Info                              : Advanced Audio Codec
Format profile                           : LC
Codec ID                                 : 40
Duration                                 : 1h 48mn
Bit rate mode                            : Variable
Bit rate                                 : 182 Kbps
Maximum bit rate                         : 236 Kbps
Channel(s)                               : 2 channels
Channel positions                        : Front: L R
Sampling rate                            : 48.0 KHz
Compression mode                         : Lossy
Stream size                              : 141 MiB (4%)
Title                                    : AAC Original _ Dumb.And.Dumber.To.2014.P.WEBRip.720p.E
Language                                 : Russian
Encoded date                             : UTC 2014-12-30 21:46:33
Tagged date                              : UTC 2014-12-30 21:53:43

Audio #2
ID                                       : 3
Format                                   : AC-3
Format/Info                              : Audio Coding 3
Mode extension                           : CM (complete main)
Format settings, Endianness              : Big
Codec ID                                 : ac-3
Duration                                 : 1h 48mn
Bit rate mode                            : Constant
Bit rate                                 : 384 Kbps
Channel(s)                               : 6 channels
Channel positions                        : Front: L C R, Side: L R, LFE
Sampling rate                            : 48.0 KHz
Bit depth                                : 16 bits
Compression mode                         : Lossy
Stream size                              : 297 MiB (8%)
Title                                    : AC3 Original _ Dumb.And.Dumber.To.2014.P.WEBRip.720p.E
Language                                 : Russian
Encoded date                             : UTC 2014-12-30 21:53:22
Tagged date                              : UTC 2014-12-30 21:53:43

Audio #3
ID                                       : 4
Format                                   : AAC
Format/Info                              : Advanced Audio Codec
Format profile                           : LC
Codec ID                                 : 40
Duration                                 : 1h 48mn
Bit rate mode                            : Variable
Bit rate                                 : 112 Kbps
Maximum bit rate                         : 159 Kbps
Channel(s)                               : 2 channels
Channel positions                        : Front: L R
Sampling rate                            : 48.0 KHz
Compression mode                         : Lossy
Stream size                              : 86.8 MiB (2%)
Title                                    : AAC Original _ Dumb.And.Dumber.To.2014.P.WEBRip.720p.E
Language                                 : English
Encoded date                             : UTC 2014-12-30 21:50:08
Tagged date                              : UTC 2014-12-30 21:53:43

Audio #4
ID                                       : 5
Format                                   : AC-3
Format/Info                              : Audio Coding 3
Mode extension                           : CM (complete main)
Format settings, Endianness              : Big
Codec ID                                 : ac-3
Duration                                 : 1h 48mn
Bit rate mode                            : Constant
Bit rate                                 : 384 Kbps
Channel(s)                               : 2 channels
Channel positions                        : Front: L R
Sampling rate                            : 48.0 KHz
Bit depth                                : 16 bits
Compression mode                         : Lossy
Stream size                              : 297 MiB (8%)
Title                                    : AC3 Original _ Dumb.And.Dumber.To.2014.P.WEBRip.720p.E
Language                                 : English
Encoded date                             : UTC 2014-12-30 21:53:34
Tagged date                              : UTC 2014-12-30 21:53:43

Код:
Код:

Скриншоты:
загрузка...
Правила, инструкции, FAQ!!!
Торрент  Добавлен [02 янв 2015, 12:00] Скачать торрент
Скачать торрент
[ Размер 39.12 КБ / Просмотров 8 ]

Статус
Проверен 
 
Размер  3.84 ГБ
Приватный: Нет (DHT включён)
.torrent скачан  94
Как залить торрент? | Как скачать Torrent? | Как смотреть и слушать онлайн?  


     Отправить личное сообщение
   
Страница 1 из 1
Показать сообщения за:  Поле сортировки  
Начать новую тему Ответить на тему

   Похожие торренты   Автор   Ответы   Просмотры   Последнее сообщение 
В этой теме нет новых непрочитанных сообщений. Скачать торрент Проверен [iPhone] Тупой и еще тупее / Dumb and Dumber (Питер Фарелли) [1994 г., Комедия, DVDRip]

в форуме Фильмы для iPod, iPhone, iPad, Размер: 679.82 МБ, Здоровье: 100%

Гость

0
3|1

15
0

18 май 2015, 10:33

Гость Перейти к последнему сообщению

В этой теме нет новых непрочитанных сообщений. Скачать торрент Проверен Левиафан (2014) WEBRip [H.264/720p-LQ]

в форуме Новинки кино, Размер: 4.13 ГБ, Здоровье: 100%

Anonymous

0
83|1

195
1

19 янв 2015, 19:09

Anonymous Перейти к последнему сообщению

В этой теме нет новых непрочитанных сообщений. Скачать торрент Сборник клипов Европа Плюс - ЕвроХит Топ 40 [24.03.2014] (2014) WEBRip 720p, 1080p

в форуме Клипы (HD-Video), Размер: 4.07 ГБ, Здоровье: 100%

Anonymous

0
88|4

227
41

25 мар 2014, 06:31

Anonymous Перейти к последнему сообщению

В этой теме нет новых непрочитанных сообщений. Сигнал / The Signal (2014) WEBRip [H.264/720p-LQ]

в форуме Новинки кино, Размер: 2.34 ГБ, Здоровье: 0%

Anonymous

0
0|0

219
0

18 авг 2014, 11:50

Anonymous Перейти к последнему сообщению

В этой теме нет новых непрочитанных сообщений. Скачать торрент Проверен Стрингер / Nightcrawler (2014) WEBRip 720p | L2

в форуме 720p | 1080p, Размер: 2.14 ГБ, Здоровье: 100%

Гость

0
1286|187

107
3554

30 дек 2014, 22:18

Гость Перейти к последнему сообщению



Сейчас этот форум просматривают: нет зарегистрированных пользователей и гости: 2


Вы не можете начинать темы
Вы не можете отвечать на сообщения
Вы не можете редактировать свои сообщения
Вы не можете удалять свои сообщения
Вы не можете добавлять вложения

Перейти:  

!ВНИМАНИЕ!
 Ресурс не предоставляет электронные версии произведений, а занимается лишь коллекционированием и каталогизацией ссылок, присылаемых и публикуемых на форуме нашими читателями. Если вы являетесь правообладателем какого-либо представленного материала и не желаете чтобы ссылка на него находилась в нашем каталоге, свяжитесь с нами и мы незамедлительно удалим её. Файлы для обмена на трекере предоставлены пользователями сайта, и администрация не несёт ответственности за их содержание. Просьба не заливать файлы, защищенные авторскими правами, а также файлы нелегального содержания!