На всех торрентах на трекере установлена скидка на скачивание в размере 100 процентов(а).
 Возможность скачивания торрента НЕ зависит от ограничений при низком ратио, низком аплоаде, требуемом ратио или требуемом аплоаде.


Начать новую тему Ответить на тему
Статистика раздачи
Размер: 4.06 ГБ | Добавлен: 01 янв 2015, 14:51 | Скачали: 204
Сидеров: 77  [0 байт/сек]    Личеров: 14  [0 байт/сек]
Пред. тема | След. тема 

Автор
Сообщение

СообщениеДобавлено: 01 янв 2015, 14:51 

Страна: США
Жанр: фэнтези, комедия, семейный
Год выпуска: 1994
Продолжительность: 01:30:39
Перевод: Профессиональный (многоголосый, закадровый) + 2 x Профессиональный (двухголосый, закадровый) + 3 x Авторский + Оригинальный
Субтитры: английские, английские (SDH).


Режиссер: Брайан Левант / Brian Levant


В ролях: Джон Гудман (Fred Flintstone), Элизабет Перкинс (Wilma Flintstone), Рик Морэнис (Barney Rubble), Рози О’Доннелл (Betty Rubble), Кайл МакЛоклен (Cliff Vandercave), Холли Берри (Miss Stone), Элизабет Тейлор (Pearl Slaghoople), Дэнн Флорек (Mr. Slate), Ричард Молл (Hoagie), Ирвин Кийес (Joe Rockhead), Джонатан Уинтерс (Grizzled Man), Харви Кормен (Dictabird, озвучка)


Описание: Двое закадычных друзей Фред Флинтстоун и Барни Раббл уже много лет работают на каменоломне в Бедроке. Однажды начальство каменоломни решает провести тест среди рабочих, дабы выявить способных работников, которых ждёт повышение, а остальных - просто-напросто уволить. Фред уверен, что не пройдёт этот тест и совсем потерял надежду, однако его добрый друг Барни, жаждущий отблагодарить приятеля за всю помощь, которую тот ему оказывал, незаметно поменял ответы на тест Фреда на свои. После чего Фреда повысили на работе, а Барни уволили. И чем шикарнее со временем становилась жизнь семьи Флинтстоунов, тем меньше крепла дружба Фреда и Барни.



MPAA: PG - Рекомендуется присутствие родителей


Семпл


Качество: BDRip
Контейнер: MKV

Видео: AVC, 1280x692 (1.850), 4684 kbps, 23,976 fps, 0,221 bpp
Аудио №1: русский / AC3 / 2.0 / 48 kHz / 192 kbps SDI Media
Аудио №2: русский / AC3 / 2.0 / 48 kHz / 192 kbps Премьер Видео Фильм
Аудио №3: русский / AC3 / 2.0 / 48 kHz / 192 kbps НТВ+
Аудио №4: русский / AC3 / 2.0 / 48 kHz / 192 kbps Андрей Гаврилов
Аудио №5: русский / AC3 / 2.0 / 48 kHz / 192 kbps Василий Горчаков
Аудио №6: русский / AC3 / 2.0 / 48 kHz / 192 kbps Антон Алексеев
Аудио №7: английский / AC3 / 5.1 / 48 kHz / 448 kbps
Навигация по главам: есть


-------------------------------------------------------------------------------
x264 [info]: frame I:1339 Avg QP:17.43 size:117678
x264 [info]: frame P:28416 Avg QP:18.69 size: 47816
x264 [info]: frame B:100660 Avg QP:21.79 size: 17415
-------------------------------------------------------------------------------

Format : Matroska
Format version : Version 2
File size : 4.06 GiB
Duration : 1h 30mn
Overall bit rate : 6 412 Kbps
Movie name : = Флинтстоуны / The Flintstones BDRip 720p by SC Kosmos =
Encoded date : UTC 2014-12-28 19:00:54
Writing application : mkvmerge v3.3.0 ('Language') gebaut am Mar 24 2010 14:59:24
Writing library : libebml v0.8.0 + libmatroska v0.9.0

Video
ID : 1
Format : AVC
Format/Info : Advanced Video Codec
Format profile : High@L4.1
Format settings, CABAC : Yes
Format settings, ReFrames : 9 frames
Codec ID : V_MPEG4/ISO/AVC
Duration : 1h 30mn
Bit rate : 4 684 Kbps
Width : 1 280 pixels
Height : 692 pixels
Display aspect ratio : 1.850
Frame rate : 23.976 fps
Color space : YUV
Chroma subsampling : 4:2:0
Bit depth : 8 bits
Scan type : Progressive
Bits/(Pixel*Frame) : 0.221
Stream size : 2.97 GiB (73%)
Title : Флинтстоуны / The Flintstones BDRip 720p by SC Kosmos
Writing library : x264 core 144 r2525 40bb568
Encoding settings : cabac=1 / ref=9 / deblock=1:-3:-3 / analyse=0x3:0x113 / me=umh / subme=11 / psy=1 / psy_rd=1.00:0.00 / mixed_ref=1 / me_range=32 / chroma_me=1 / trellis=2 / 8x8dct=1 / cqm=0 / deadzone=21,11 / fast_pskip=0 / chroma_qp_offset=-2 / threads=12 / lookahead_threads=2 / sliced_threads=0 / nr=0 / decimate=1 / interlaced=0 / bluray_compat=0 / constrained_intra=0 / bframes=8 / b_pyramid=2 / b_adapt=2 / b_bias=0 / direct=3 / weightb=1 / open_gop=0 / weightp=2 / keyint=240 / keyint_min=23 / scenecut=40 / intra_refresh=0 / rc_lookahead=40 / rc=crf / mbtree=0 / crf=18.0 / qcomp=0.60 / qpmin=0 / qpmax=69 / qpstep=4 / vbv_maxrate=62500 / vbv_bufsize=78125 / crf_max=0.0 / nal_hrd=none / filler=0 / ip_ratio=1.40 / pb_ratio=1.30 / aq=1:1.00
Language : English
Default : No
Forced : No

Audio #1
ID : 2
Format : AC-3
Format/Info : Audio Coding 3
Mode extension : CM (complete main)
Codec ID : A_AC3
Duration : 1h 30mn
Bit rate mode : Constant
Bit rate : 192 Kbps
Channel(s) : 2 channels
Channel positions : Front: L R
Sampling rate : 48.0 KHz
Bit depth : 16 bits
Compression mode : Lossy
Stream size : 124 MiB (3%)
Title : MVO ( SDI Media )
Language : Russian
Default : Yes
Forced : No

Audio #2
ID : 3
Format : AC-3
Format/Info : Audio Coding 3
Mode extension : CM (complete main)
Codec ID : A_AC3
Duration : 1h 30mn
Bit rate mode : Constant
Bit rate : 192 Kbps
Channel(s) : 2 channels
Channel positions : Front: L R
Sampling rate : 48.0 KHz
Bit depth : 16 bits
Compression mode : Lossy
Stream size : 124 MiB (3%)
Title : DVO ( Премьер Видео Фильм )
Language : Russian
Default : No
Forced : No

Audio #3
ID : 4
Format : AC-3
Format/Info : Audio Coding 3
Mode extension : CM (complete main)
Codec ID : A_AC3
Duration : 1h 30mn
Bit rate mode : Constant
Bit rate : 192 Kbps
Channel(s) : 2 channels
Channel positions : Front: L R
Sampling rate : 48.0 KHz
Bit depth : 16 bits
Compression mode : Lossy
Stream size : 124 MiB (3%)
Title : DVO ( НТВ+ )
Language : Russian
Default : No
Forced : No

Audio #4
ID : 5
Format : AC-3
Format/Info : Audio Coding 3
Mode extension : CM (complete main)
Codec ID : A_AC3
Duration : 1h 30mn
Bit rate mode : Constant
Bit rate : 192 Kbps
Channel(s) : 2 channels
Channel positions : Front: L R
Sampling rate : 48.0 KHz
Bit depth : 16 bits
Compression mode : Lossy
Stream size : 124 MiB (3%)
Title : AVO ( Андрей Гаврилов )
Language : Russian
Default : No
Forced : No

Audio #5
ID : 6
Format : AC-3
Format/Info : Audio Coding 3
Mode extension : CM (complete main)
Codec ID : A_AC3
Duration : 1h 30mn
Bit rate mode : Constant
Bit rate : 192 Kbps
Channel(s) : 2 channels
Channel positions : Front: L R
Sampling rate : 48.0 KHz
Bit depth : 16 bits
Compression mode : Lossy
Stream size : 124 MiB (3%)
Title : AVO ( Василий Горчаков )
Language : Russian
Default : No
Forced : No

Audio #6
ID : 7
Format : AC-3
Format/Info : Audio Coding 3
Mode extension : CM (complete main)
Codec ID : A_AC3
Duration : 1h 30mn
Bit rate mode : Constant
Bit rate : 192 Kbps
Channel(s) : 2 channels
Channel positions : Front: L R
Sampling rate : 48.0 KHz
Bit depth : 16 bits
Compression mode : Lossy
Stream size : 124 MiB (3%)
Title : AVO ( Антон Алексеев )
Language : Russian
Default : No
Forced : No

Audio #7
ID : 8
Format : AC-3
Format/Info : Audio Coding 3
Mode extension : CM (complete main)
Codec ID : A_AC3
Duration : 1h 30mn
Bit rate mode : Constant
Bit rate : 448 Kbps
Channel(s) : 6 channels
Channel positions : Front: L C R, Side: L R, LFE
Sampling rate : 48.0 KHz
Bit depth : 16 bits
Compression mode : Lossy
Stream size : 290 MiB (7%)
Language : English
Default : No
Forced : No

Text #1
ID : 9
Format : UTF-8
Codec ID : S_TEXT/UTF8
Codec ID/Info : UTF-8 Plain Text
Language : English
Default : No
Forced : No

Text #2
ID : 10
Format : UTF-8
Codec ID : S_TEXT/UTF8
Codec ID/Info : UTF-8 Plain Text
Title : SDH
Language : English
Default : No
Forced : No

Menu
00:00:00.000 : en:00:00:00.000
00:04:08.915 : en:00:04:08.915
00:09:28.609 : en:00:09:28.609
00:14:49.179 : en:00:14:49.179
00:19:21.493 : en:00:19:21.493
00:25:29.069 : en:00:25:29.069
00:29:19.507 : en:00:29:19.507
00:34:29.317 : en:00:34:29.317
00:40:39.061 : en:00:40:39.061
00:45:55.711 : en:00:45:55.711
00:48:50.677 : en:00:48:50.677
00:55:29.242 : en:00:55:29.242
01:00:39.802 : en:01:00:39.802
01:05:56.744 : en:01:05:56.744
01:11:37.001 : en:01:11:37.001
01:15:40.410 : en:01:15:40.410
01:19:55.123 : en:01:19:55.123
01:23:17.033 : en:01:23:17.033






загрузка...
Правила, инструкции, FAQ!!!
Торрент  Добавлен [01 янв 2015, 14:51] Скачать торрент
Скачать торрент
[ Размер 20.84 КБ / Просмотров 8 ]

Статус
Проверен 
 
Размер  4.06 ГБ
Приватный: Нет (DHT включён)
.torrent скачан  204
Как залить торрент? | Как скачать Torrent? | Как смотреть и слушать онлайн?  


     Отправить личное сообщение
   
Страница 1 из 1
Показать сообщения за:  Поле сортировки  
Начать новую тему Ответить на тему

   Похожие торренты   Автор   Ответы   Просмотры   Последнее сообщение 
В этой теме нет новых непрочитанных сообщений. Скачать торрент Проверен Флинстоуны / The Flintstones (1994) BDRip 1080p | P, P2, A

в форуме 720p | 1080p, Размер: 8.38 ГБ, Здоровье: 100%

Гость

0
7|2

48
157

08 дек 2014, 18:18

Гость Перейти к последнему сообщению

В этой теме нет новых непрочитанных сообщений. Скачать торрент Проверен Флинстоуны / The Flintstones (1994) DVDRip

в форуме Детское, Семейное кино, Размер: 1.45 ГБ, Здоровье: 100%

Гость

0
57|19

155
76

08 дек 2014, 18:21

Гость Перейти к последнему сообщению

В этой теме нет новых непрочитанных сообщений. Скачать торрент Проверен Нострадамус / Nostradamus (1994) BDRip 720p | P | A

в форуме 720p | 1080p, Размер: 6.97 ГБ, Здоровье: 100%

Anonymous

0
11|2

60
106

08 сен 2014, 19:44

Anonymous Перейти к последнему сообщению

В этой теме нет новых непрочитанных сообщений. Скачать торрент Проверен Затерянный лагерь / Camp Nowhere (1994) BDRip 720p | P

в форуме 720p | 1080p, Размер: 3.14 ГБ, Здоровье: 100%

Anonymous

0
74|34

78
170

26 июл 2015, 21:44

Anonymous Перейти к последнему сообщению

В этой теме нет новых непрочитанных сообщений. Скачать торрент Проверен Повелитель страниц / The Pagemaster (1994) BDRip [720p]

в форуме Детское, Семейное кино, Размер: 6.28 ГБ, Здоровье: 0%

Anonymous

0
0|0

45
0

09 авг 2014, 21:27

Anonymous Перейти к последнему сообщению



Сейчас этот форум просматривают: нет зарегистрированных пользователей и гости: 1


Вы не можете начинать темы
Вы не можете отвечать на сообщения
Вы не можете редактировать свои сообщения
Вы не можете удалять свои сообщения
Вы не можете добавлять вложения

Перейти:  

!ВНИМАНИЕ!
 Ресурс не предоставляет электронные версии произведений, а занимается лишь коллекционированием и каталогизацией ссылок, присылаемых и публикуемых на форуме нашими читателями. Если вы являетесь правообладателем какого-либо представленного материала и не желаете чтобы ссылка на него находилась в нашем каталоге, свяжитесь с нами и мы незамедлительно удалим её. Файлы для обмена на трекере предоставлены пользователями сайта, и администрация не несёт ответственности за их содержание. Просьба не заливать файлы, защищенные авторскими правами, а также файлы нелегального содержания!