На всех торрентах на трекере установлена скидка на скачивание в размере 100 процентов(а).
 Возможность скачивания торрента НЕ зависит от ограничений при низком ратио, низком аплоаде, требуемом ратио или требуемом аплоаде.


Начать новую тему Ответить на тему
Статистика раздачи
Размер: 7.76 ГБ | Добавлен: 31 дек 2014, 15:36 | Скачали: 1466
Сидеров: 496  [0 байт/сек]    Личеров: 54  [0 байт/сек]
Пред. тема | След. тема 

Автор
Сообщение

СообщениеДобавлено: 31 дек 2014, 15:36 

Название: Небесный капитан и мир будущего
Оригинальное название: Sky Captain and the World of Tomorrow
Год выхода: 2004
Жанр: фантастика, боевик, триллер, детектив, приключения
Режиссер: Керри Конран
В ролях: Гвинет Пэлтроу, Джуд Лоу, Джованни Рибизи, Майкл Гэмбон, Бай Лин, Омид Джалили, Лоуренс Оливье, Анджелина Джоли, Тревор Бэкстер, Джулиан Карри

О фильме: Действие разворачивается в Нью-Йорке 1939 года. Молодая журналистка узнает о том, что всемирно известные ученые пропадают при невыясненных обстоятельствах. Объединившись с опытным пилотом и искателем приключений, она пытается нарушить планы сумасшедшего, стремящегося завладеть миром…



Выпущено: Paramount Pictures
Продолжительность: 01:46:37
Перевод: Дублированный (лицензия)


Кодек: x264
Качество: BDRip (источник: Blu-ray Disc)
Видео: 1920x1080 (16:9), 23.976 fps, 9330 kbps
Аудио #1: AC-3, 6 ch, 448 kbps (Rus)
Аудио #2: AC-3, 6 ch, 640 kbps (Eng)
Субтитры: Русские, Английские
Скачать: сэмпл

Скриншоты

Общее
Уникальный идентификатор : 234037910195958725774347487124143280073 (0xB0120FDB176B9EB9A4CFDDA5100D0FC9)
Полное имя : Sky.Captain.and.the.World.of.Tomorrow.2004.BDRip.1080p.Rus.Eng.mkv
Формат : Matroska
Версия формата : Version 2
Размер файла : 7,76 Гбайт
Продолжительность : 1 ч. 46 м.
Общий поток : 10,4 Мбит/сек
Название фильма : Небесный капитан и мир будущего / Sky Captain and the World of Tomorrow (2004)
Дата кодирования : UTC 2014-12-29 18:51:56
Программа кодирования : mkvmerge v5.8.0 ('No Sleep / Pillow') built on Sep 2 2012 15:37:04
Библиотека кодирования : libebml v1.2.3 + libmatroska v1.3.0

Видео
Идентификатор : 1
Формат : AVC
Формат/Информация : Advanced Video Codec
Профиль формата : High@L4.1
Параметр CABAC формата : Да
Параметр ReFrames формата : 4 кадра
Идентификатор кодека : V_MPEG4/ISO/AVC
Продолжительность : 1 ч. 46 м.
Битрейт : 9330 Кбит/сек
Ширина : 1920 пикселей
Высота : 1080 пикселей
Соотношение сторон : 16:9
Режим частоты кадров : Постоянный
Частота кадров : 23,976 кадра/сек
Цветовое пространство : YUV
Субдискретизация насыщенности : 4:2:0
Битовая глубина : 8 бит
Тип развёртки : Прогрессивная
Бит/(Пиксели*Кадры) : 0.188
Размер потока : 6,79 Гбайт (88%)
Заголовок : Release by AlexKa
Библиотека кодирования : x264 core 144 r2525 40bb568
Настройки программы : cabac=1 / ref=4 / deblock=1:-3:-3 / analyse=0x3:0x133 / me=umh / subme=11 / psy=1 / psy_rd=1.20:0.00 / mixed_ref=1 / me_range=32 / chroma_me=1 / trellis=2 / 8x8dct=1 / cqm=0 / deadzone=21,11 / fast_pskip=0 / chroma_qp_offset=-2 / threads=12 / lookahead_threads=1 / sliced_threads=0 / nr=0 / decimate=0 / interlaced=0 / bluray_compat=0 / constrained_intra=0 / bframes=6 / b_pyramid=2 / b_adapt=2 / b_bias=0 / direct=3 / weightb=1 / open_gop=0 / weightp=2 / keyint=240 / keyint_min=23 / scenecut=40 / intra_refresh=0 / rc=2pass / mbtree=0 / bitrate=9330 / ratetol=1.0 / qcomp=0.60 / qpmin=0 / qpmax=69 / qpstep=4 / cplxblur=20.0 / qblur=0.5 / ip_ratio=1.40 / pb_ratio=1.30 / aq=1:0.70
Язык : English

Аудио #1
Идентификатор : 2
Формат : AC-3
Формат/Информация : Audio Coding 3
Расширение режима : CM (complete main)
Параметр Endianness формата : Big
Идентификатор кодека : A_AC3
Продолжительность : 1 ч. 46 м.
Вид битрейта : Постоянный
Битрейт : 448 Кбит/сек
Каналы : 6 каналов
Расположение каналов : Front: L C R, Side: L R, LFE
Частота : 48,0 КГц
Битовая глубина : 16 бит
Метод сжатия : С потерями
Размер потока : 342 Мбайт (4%)
Заголовок : Rus
Язык : Russian

Аудио #2
Идентификатор : 3
Формат : AC-3
Формат/Информация : Audio Coding 3
Расширение режима : CM (complete main)
Параметр Endianness формата : Big
Идентификатор кодека : A_AC3
Продолжительность : 1 ч. 46 м.
Вид битрейта : Постоянный
Битрейт : 640 Кбит/сек
Каналы : 6 каналов
Расположение каналов : Front: L C R, Side: L R, LFE
Частота : 48,0 КГц
Битовая глубина : 16 бит
Метод сжатия : С потерями
Размер потока : 488 Мбайт (6%)
Заголовок : Eng
Язык : English

Текст #1
Идентификатор : 4
Формат : UTF-8
Идентификатор кодека : S_TEXT/UTF8
Идентификатор кодека/Информация : UTF-8 Plain Text
Заголовок : Rus
Язык : Russian

Текст #2
Идентификатор : 5
Формат : UTF-8
Идентификатор кодека : S_TEXT/UTF8
Идентификатор кодека/Информация : UTF-8 Plain Text
Заголовок : Eng
Язык : English

Меню
00:00:00.000 : :Chapter 01
00:06:00.025 : :Chapter 02
00:11:26.477 : :Chapter 03
00:16:45.671 : :Chapter 04
00:23:47.050 : :Chapter 05
00:28:08.353 : :Chapter 06
00:36:45.911 : :Chapter 07
00:41:03.210 : :Chapter 08
00:46:11.727 : :Chapter 09
00:53:26.786 : :Chapter 10
01:01:33.272 : :Chapter 11
01:06:03.918 : :Chapter 12
01:12:37.853 : :Chapter 13
01:17:54.544 : :Chapter 14
01:24:51.669 : :Chapter 15
01:31:05.792 : :Chapter 16
01:36:01.130 : :Chapter 17
01:46:35.889 : :Chapter 18
x264 [info]: frame I:1186 Avg QP:15.36 size:205643
x264 [info]: frame P:32319 Avg QP:18.48 size: 98976
x264 [info]: frame B:119867 Avg QP:20.73 size: 33498
x264 [info]: consecutive B-frames: 2.6% 2.5% 6.2% 11.3% 6.3% 70.0% 1.0%
загрузка...
Правила, инструкции, FAQ!!!
Торрент  Добавлен [31 дек 2014, 15:36] Скачать торрент
Скачать торрент
[ Размер 20.14 КБ / Просмотров 11 ]

Статус
Проверен 
 
Размер  7.76 ГБ
Приватный: Нет (DHT включён)
.torrent скачан  1466
Как залить торрент? | Как скачать Torrent? | Как смотреть и слушать онлайн?  


     Отправить личное сообщение
   
Страница 1 из 1
Показать сообщения за:  Поле сортировки  
Начать новую тему Ответить на тему

   Похожие торренты   Автор   Ответы   Просмотры   Последнее сообщение 
В этой теме нет новых непрочитанных сообщений. Грань будущего / Edge of Tomorrow (2014) BDRip 1080p | D, A

в форуме Новинки кино, Размер: 9.62 ГБ, Здоровье: 100%

Anonymous

0
132|2

382
10

19 сен 2014, 19:09

Anonymous Перейти к последнему сообщению

В этой теме нет новых непрочитанных сообщений. Скачать торрент Капитан Филлипс / Captain Phillips (2013) BDRip 1080p | Чистый звук

в форуме 720p | 1080p, Размер: 14.88 ГБ, Здоровье: 0%

Anonymous

0
0|0

32
0

19 янв 2014, 22:24

Anonymous Перейти к последнему сообщению

В этой теме нет новых непрочитанных сообщений. Скачать торрент Проверен Грань будущего / Edge of Tomorrow (2014) BDRip 1080p от Ash61 | 3D-Video | halfOU | D, A | iTunes

в форуме HD-Video в 3D, Размер: 10.3 ГБ, Здоровье: ???%

Anonymous

0
0|7

901
1616

21 сен 2014, 11:26

Anonymous Перейти к последнему сообщению

В этой теме нет новых непрочитанных сообщений. Скачать торрент Проверен Послезавтра / The Day After Tomorrow (2004) BDRip 1080p

в форуме 720p | 1080p, Размер: 11.5 ГБ, Здоровье: 100%

Anonymous

0
23|4

43
95

06 ноя 2014, 17:31

Anonymous Перейти к последнему сообщению

В этой теме нет новых непрочитанных сообщений. Скачать торрент Капитан Филлипс / Captain Phillips (2013) BDRip 720p | P2

в форуме 720p | 1080p, Размер: 8.33 ГБ, Здоровье: 0%

Anonymous

0
0|0

44
0

11 янв 2014, 22:06

Anonymous Перейти к последнему сообщению



Сейчас этот форум просматривают: нет зарегистрированных пользователей и гости: 2


Вы не можете начинать темы
Вы не можете отвечать на сообщения
Вы не можете редактировать свои сообщения
Вы не можете удалять свои сообщения
Вы не можете добавлять вложения

Перейти:  

!ВНИМАНИЕ!
 Ресурс не предоставляет электронные версии произведений, а занимается лишь коллекционированием и каталогизацией ссылок, присылаемых и публикуемых на форуме нашими читателями. Если вы являетесь правообладателем какого-либо представленного материала и не желаете чтобы ссылка на него находилась в нашем каталоге, свяжитесь с нами и мы незамедлительно удалим её. Файлы для обмена на трекере предоставлены пользователями сайта, и администрация не несёт ответственности за их содержание. Просьба не заливать файлы, защищенные авторскими правами, а также файлы нелегального содержания!