На всех торрентах на трекере установлена скидка на скачивание в размере 100 процентов(а).
 Возможность скачивания торрента НЕ зависит от ограничений при низком ратио, низком аплоаде, требуемом ратио или требуемом аплоаде.


Начать новую тему Ответить на тему
Статистика раздачи
Размер: 7.01 ГБ | Добавлен: 31 дек 2014, 00:19 | Скачали: 1
Сидеров: 51  [0 байт/сек]    Личеров: 11  [0 байт/сек]
Пред. тема | След. тема 

Автор
Сообщение

СообщениеДобавлено: 31 дек 2014, 00:19 

Русское название: Боже, благослови Америку
Оригинальное название: God Bless America
Год выпуска: 2011
Жанр: Драма

Описание фильма:

Фрэнк просто выдохся: сосед-невежа, постоянный плач ребенка, глупая болтовня коллег, и в довершение всего — ещё и опухоль мозга. Достав пистолет, уставший от жизни герой находит для себя неожиданного друга и союзника по имени Рокси. Это девушка-студентка, проявляющая нетерпимость к идиотам вокруг и мыслящая в точности, как и Фрэнк. Он даёт ей уроки стрельбы, а она ему — цели, которые нужно поразить.

Режиссер: Боб Голдтуэйт / Bob Goldthwait

Актеры:
Джоэль Мюррей, Тара Барр, Маккензи Брук Смит, Мелинда Пейдж Хэмилтон, Рич МакДональд, Андреа Харпер, Дэвид Менденхолл, Джулиана Акоста

Продолжительность: 01:44:24
Перевод: Двуголосый закадровый (Ozz.TV)



Дата мировой премьеры: 9 сентября 2011
Дата российской премьеры: 31 мая 2012

Видеокодек: MPEG-4 AVC/H.264
Битрейт видео: ~9500 Kbps
Размер кадра: 1920 x 810
Качество видео: BDRip
Аудиокодек: AC3 5.1
Битрейт аудио: 448 Kbps
Код:
Код:
General
Unique ID                      : 227283489752641984340451632144216584179 (0xAAFD35377D2C2F62985B11D0BDFD6FF3)
Complete name                  : Боже благослови Америку.mkv
Format                         : Matroska
Format version                 : Version 4 / Version 2
File size                      : 7.01 GiB
Duration                       : 1h 44mn
Overall bit rate               : 9 621 Kbps
Movie name                     : Боже благослови Америку (rip by smithland)
Encoded date                   : UTC 2014-12-29 21:50:14
Writing application            : mkvmerge v7.4.0 ('Circles')
Writing library                : libebml v1.3.0 + libmatroska v1.4.1
Attachements                   : cover.png

Video
ID                             : 1
Format                         : AVC
Format/Info                    : Advanced Video Codec
Format profile                 :
Format settings, CABAC         : Yes
Format settings, ReFrames      : 5 frames
Codec ID                       : V_MPEG4/ISO/AVC
Duration                       : 1h 44mn
Bit rate                       : 8 982 Kbps
Nominal bit rate               : 9 500 Kbps
Width                          : 1 920 pixels
Height                         : 810 pixels
Display aspect ratio           : 2.40:1
Frame rate mode                : Constant
Frame rate                     : 23.976 fps
Color space                    : YUV
Chroma subsampling             : 4:2:0
Bit depth                      : 8 bits
Scan type                      : Progressive
Bits/(Pixel*Frame)             : 0.241
Stream size                    : 6.55 GiB (93%)
Writing library                : x264 core 142 r2479 dd79a61
Encoding settings              : cabac=1 / ref=5 / deblock=1:-1:0 / analyse=0x3:0x133 / me=umh / subme=11 / psy=1 / psy_rd=1.10:0.55 / mixed_ref=1 / me_range=27 / chroma_me=1 / trellis=2 / 8x8dct=1 / cqm=0 / deadzone=21,11 / fast_pskip=1 / chroma_qp_offset=-4 / threads=12 / lookahead_threads=1 / sliced_threads=0 / nr=0 / decimate=1 / interlaced=0 / bluray_compat=0 / constrained_intra=0 / bframes=5 / b_pyramid=2 / b_adapt=1 / b_bias=0 / direct=1 / weightb=1 / open_gop=0 / weightp=2 / keyint=240 / keyint_min=24 / scenecut=40 / intra_refresh=0 / rc_lookahead=40 / rc=abr / mbtree=1 / bitrate=9500 / ratetol=1.0 / qcomp=0.60 / qpmin=0 / qpmax=69 / qpstep=4 / vbv_maxrate=62500 / vbv_bufsize=78125 / nal_hrd=none / filler=0 / ip_ratio=1.40 / aq=1:1.00
Language                       : Russian
Default                        : Yes
Forced                         : Yes
Color primaries                : BT.709
Transfer characteristics       : BT.709
Matrix coefficients            : BT.709
DURATION                       : 01:44:22.298000000
NUMBER_OF_FRAMES               : 150145
NUMBER_OF_BYTES                : 7178923725
_STATISTICS_WRITING_APP        : mkvmerge v7.4.0 ('Circles')
_STATISTICS_WRITING_DATE_UTC   : 2014-12-29 21:50:14
_STATISTICS_TAGS               : BPS DURATION NUMBER_OF_FRAMES NUMBER_OF_BYTES

Audio
ID                             : 2
Format                         : AC-3
Format/Info                    : Audio Coding 3
Mode extension                 : CM (complete main)
Format settings, Endianness    : Big
Codec ID                       : A_AC3
Duration                       : 1h 44mn
Bit rate mode                  : Constant
Bit rate                       : 448 Kbps
Channel(s)                     : 6 channels
Channel positions              : Front: L C R, Side: L R, LFE
Sampling rate                  : 48.0 KHz
Bit depth                      : 16 bits
Compression mode               : Lossy
Stream size                    : 334 MiB (5%)
Title                          : DVO - Ozz.TV
Language                       : Russian
Default                        : Yes
Forced                         : Yes
DURATION                       : 01:44:22.336000000
NUMBER_OF_FRAMES               : 195698
NUMBER_OF_BYTES                : 350690816
_STATISTICS_WRITING_APP        : mkvmerge v7.4.0 ('Circles')
_STATISTICS_WRITING_DATE_UTC   : 2014-12-29 21:50:14
_STATISTICS_TAGS               : BPS DURATION NUMBER_OF_FRAMES NUMBER_OF_BYTES
Скриншоты:


загрузка...
Правила, инструкции, FAQ!!!
Торрент  Добавлен [31 дек 2014, 00:19] Скачать торрент
Скачать торрент
[ Размер 35.82 КБ / Просмотров 19 ]

Статус
Проверен 
 
Размер  7.01 ГБ
Приватный: Нет (DHT включён)
.torrent скачан  1
Как залить торрент? | Как скачать Torrent? | Как смотреть и слушать онлайн?  


     Отправить личное сообщение
   
Страница 1 из 1
Показать сообщения за:  Поле сортировки  
Начать новую тему Ответить на тему

   Похожие торренты   Автор   Ответы   Просмотры   Последнее сообщение 
В этой теме нет новых непрочитанных сообщений. Скачать торрент Проверен Боже, благослови Америку! / God Bless America (2011) BDRip [576p] iPad

в форуме Фильмы для iPod, iPhone, iPad, Размер: 1.71 ГБ, Здоровье: 100%

Гость

0
7|1

37
0

12 дек 2014, 22:54

Гость Перейти к последнему сообщению

В этой теме нет новых непрочитанных сообщений. Скачать торрент Проверен Боже, Благослови Оззи Осборна / God Bless Ozzy Osbourne [2011 г., Documentary, Biography, HDRip] Русская озвучка от Tastam

в форуме Концерты (HD-Video), Размер: 3.23 ГБ, Здоровье: 100%

Гость

0
3|3

62
3

26 апр 2015, 22:47

Гость Перейти к последнему сообщению

В этой теме нет новых непрочитанных сообщений. Скачать торрент Боже, храни Оззи Осборна / God Bless Ozzy Osbourne (2011) DVDRip | P1

в форуме Документальные, Размер: 1.72 ГБ, Здоровье: 100%

Anonymous

0
9|0

110
3

03 фев 2014, 21:56

Anonymous Перейти к последнему сообщению

В этой теме нет новых непрочитанных сообщений. Скачать торрент Проверен God Bless Ozzy Osbourne [2011, Documentary, BDRip 720p]

в форуме Концерты (HD-Video), Размер: 4.36 ГБ, Здоровье: 100%

Anonymous

0
1|0

4
0

23 окт 2016, 18:44

Anonymous Перейти к последнему сообщению

В этой теме нет новых непрочитанных сообщений. Скачать торрент Эйр Америка / Air America (1990) BDRip 1080p

в форуме 720p | 1080p, Размер: 11.55 ГБ, Здоровье: 100%

Anonymous

0
3|1

83
37

06 апр 2014, 12:30

Anonymous Перейти к последнему сообщению



Сейчас этот форум просматривают: нет зарегистрированных пользователей и гости: 1


Вы не можете начинать темы
Вы не можете отвечать на сообщения
Вы не можете редактировать свои сообщения
Вы не можете удалять свои сообщения
Вы не можете добавлять вложения

Перейти:  

!ВНИМАНИЕ!
 Ресурс не предоставляет электронные версии произведений, а занимается лишь коллекционированием и каталогизацией ссылок, присылаемых и публикуемых на форуме нашими читателями. Если вы являетесь правообладателем какого-либо представленного материала и не желаете чтобы ссылка на него находилась в нашем каталоге, свяжитесь с нами и мы незамедлительно удалим её. Файлы для обмена на трекере предоставлены пользователями сайта, и администрация не несёт ответственности за их содержание. Просьба не заливать файлы, защищенные авторскими правами, а также файлы нелегального содержания!