На всех торрентах на трекере установлена скидка на скачивание в размере 100 процентов(а).
 Возможность скачивания торрента НЕ зависит от ограничений при низком ратио, низком аплоаде, требуемом ратио или требуемом аплоаде.


Начать новую тему Ответить на тему
Статистика раздачи
Размер: 9.99 ГБ | Добавлен: 31 дек 2014, 00:03 | Скачали: 1
Сидеров: 0  [0 байт/сек]    Личеров: 0  [0 байт/сек]
Пред. тема | След. тема 

Автор
Сообщение

СообщениеДобавлено: 31 дек 2014, 00:03 

Год выпуска: 2000
Жанр: Фэнтези, Драма, Мелодрама, Комедия
Производство: США / Universal Pictures

Описание фильма:
Что бы вы предпочли: быть президентом крупной инвестиционной компании, жить в роскошной квартире с видом на миллиард долларов, раскатывать на последней модели «Феррари» и при этом оставаться холостяком или работать продавцом автопокрышек у «Большого Эда», покупать одежду в супермаркете и передвигаться по родному пригороду на вместительном и еще не очень старом минивене?
Не спешите с ответом, ведь недаром судьба, в виде «обдолбанного» чернокожего деда мороза, преподносит Джеку шанс попробовать оба варианта. И поверьте, несмотря на обилие комичных ситуаций, которые теперь являются неотъемлемой частью его жизни, Джеку предстоит непростой выбор.

Режиссер: Бретт Рэтнер
Актеры: Николас Кейдж, Теа Леони, Дон Чидл, Джереми Пивен, Сол Рубинек, Джозеф Соммер, Макензи Вега, Лиза Торнхилл, Эмбер Валлетта

Продолжительность: 02:05:54
Качество видео: BDRip
Перевод: Дублированный, Многоголосый закадровый, Авторский одноголосый закадровый
Язык субтитров: Русский, Английский
Вид субтитров: Вшитые отключаемые



Видеокодек: MPEG-4 AVC/H.264
Битрейт видео: ~8374 kbps
Размер кадра: 1920 х 816
Аудио 1: Русский, AC3 2.0, 192 kbps, 48 kHz (DUB)
Аудио 2: Русский, AC3 5.1, 448 kbps, 48 kHz (MVO, R5)
Аудио 3: Русский, AC3 2.0, 192 kbps, 48 kHz (MVO, PTP)
Аудио 4: Русский, AC3 5.1, 448 kbps, 48 kHz (AVO, Ю.Живов)
Аудио 5: Украинский, AC3 2.0, 192 kbps, 48 kHz (MVO)
Аудио 6: Английский, DTS 5.1, 1509 kbps, 48 kHz (Originalь)
Сэмпл: Ссылка
Сатурн, 2001 год
Победитель (1):
Лучшая актриса (Теа Леони)

Номинации (1):
Лучший фэнтези-фильм
• Роскошный автомобиль Ferrari, использованный при съёмках фильма, на самом деле какое-то время принадлежал Николасу Кейджу. Актёр продал его за год до начала съёмок.
• Первоначально разработкой проекта занимался Кёртис Хэнсон, который должен был стать режиссёром картины.
• Съёмочный период: 14 ноября 1999 года по 22 марта 2000 года.
Общее
Уникальный идентификатор : 252986458946386070963734868693498539068 (0xBE536B7035AD04BE964D4DD107752C3C)
Полное имя : D:\Films\The.Family.Man.2000.BDRip.1080p.mkv
Формат : Matroska
Версия формата : Version 2
Размер файла : 9,99 Гбайт
Продолжительность : 2 ч. 5 м.
Общий поток : 11,4 Мбит/сек
Дата кодирования : UTC 2014-12-29 03:34:11
Программа кодирования : mkvmerge v5.2.0 ('I can't explain') built on Dec 18 2011 18:12:03
Библиотека кодирования : libebml v1.2.3 + libmatroska v1.3.0

Видео
Идентификатор : 1
Формат : AVC
Формат/Информация : Advanced Video Codec
Профиль формата :
Параметр CABAC формата : Да
Параметр ReFrames формата : 5 кадров
Идентификатор кодека : V_MPEG4/ISO/AVC
Продолжительность : 2 ч. 5 м.
Битрейт : 8393 Кбит/сек
Ширина : 1920 пикселей
Высота : 816 пикселей
Соотношение сторон : 2,35:1
Режим частоты кадров : Постоянный
Частота кадров : 23,976 кадра/сек
Цветовое пространство : YUV
Субдискретизация насыщенности : 4:2:0
Битовая глубина : 8 бит
Тип развёртки : Прогрессивная
Бит/(Пиксели*Кадры) : 0.223
Размер потока : 7,17 Гбайт (72%)
Библиотека кодирования : x264 core 118 r2085+614 d1cc25d
Настройки программы : cabac=1 / ref=5 / deblock=1:-3:-3 / analyse=0x3:0x113 / me=umh / subme=10 / psy=1 / fade_compensate=0.00 / psy_rd=1.05:0.10 / mixed_ref=1 / me_range=48 / chroma_me=1 / trellis=2 / 8x8dct=1 / cqm=1 / deadzone=21,11 / fast_pskip=0 / chroma_qp_offset=-2 / threads=12 / sliced_threads=0 / nr=0 / decimate=1 / interlaced=0 / bluray_compat=0 / constrained_intra=0 / fgo=0 / bframes=6 / b_pyramid=2 / b_adapt=2 / b_bias=0 / direct=3 / weightb=1 / open_gop=0 / weightp=2 / keyint=250 / keyint_min=23 / scenecut=40 / intra_refresh=0 / rc_lookahead=60 / rc=2pass / mbtree=1 / bitrate=8393 / ratetol=2.0 / qcomp=0.70 / qpmin=3 / qpmax=69 / qpstep=4 / cplxblur=20.0 / qblur=0.5 / vbv_maxrate=40000 / vbv_bufsize=30000 / nal_hrd=none / ip_ratio=1.40 / aq=2:1.00
Язык : English
Default : Да
Forced : Нет

Аудио #1
Идентификатор : 2
Формат : AC-3
Формат/Информация : Audio Coding 3
Профиль формата : Dolby Digital
Расширение режима : CM (complete main)
Параметр Endianness формата : Big
Идентификатор кодека : A_AC3
Продолжительность : 2 ч. 5 м.
Вид битрейта : Постоянный
Битрейт : 192 Кбит/сек
Каналы : 2 канала
Расположение каналов : Front: L R
Частота : 48,0 КГц
Битовая глубина : 16 бит
Метод сжатия : С потерями
Размер потока : 173 Мбайт (2%)
Заголовок : DUB
Язык : Russian
Default : Да
Forced : Нет

Аудио #2
Идентификатор : 3
Формат : AC-3
Формат/Информация : Audio Coding 3
Расширение режима : CM (complete main)
Параметр Endianness формата : Big
Идентификатор кодека : A_AC3
Продолжительность : 2 ч. 5 м.
Вид битрейта : Постоянный
Битрейт : 448 Кбит/сек
Каналы : 6 каналов
Расположение каналов : Front: L C R, Side: L R, LFE
Частота : 48,0 КГц
Битовая глубина : 16 бит
Метод сжатия : С потерями
Размер потока : 404 Мбайт (4%)
Заголовок : MVO, R5
Язык : Russian
Default : Нет
Forced : Нет

Аудио #3
Идентификатор : 4
Формат : AC-3
Формат/Информация : Audio Coding 3
Профиль формата : Dolby Digital
Расширение режима : CM (complete main)
Параметр Endianness формата : Big
Идентификатор кодека : A_AC3
Продолжительность : 2 ч. 5 м.
Вид битрейта : Постоянный
Битрейт : 192 Кбит/сек
Каналы : 2 канала
Расположение каналов : Front: L R
Частота : 48,0 КГц
Битовая глубина : 16 бит
Метод сжатия : С потерями
Размер потока : 173 Мбайт (2%)
Заголовок : MVO, PTP
Default : Нет
Forced : Нет

Аудио #4
Идентификатор : 5
Формат : AC-3
Формат/Информация : Audio Coding 3
Расширение режима : CM (complete main)
Параметр Endianness формата : Big
Идентификатор кодека : A_AC3
Продолжительность : 2 ч. 5 м.
Вид битрейта : Постоянный
Битрейт : 448 Кбит/сек
Каналы : 6 каналов
Расположение каналов : Front: L C R, Side: L R, LFE
Частота : 48,0 КГц
Битовая глубина : 16 бит
Метод сжатия : С потерями
Размер потока : 404 Мбайт (4%)
Заголовок : AVO, Ю.Живов
Язык : Russian
Default : Нет
Forced : Нет

Аудио #5
Идентификатор : 6
Формат : AC-3
Формат/Информация : Audio Coding 3
Профиль формата : Dolby Digital
Расширение режима : CM (complete main)
Параметр Endianness формата : Big
Идентификатор кодека : A_AC3
Продолжительность : 2 ч. 5 м.
Вид битрейта : Постоянный
Битрейт : 192 Кбит/сек
Каналы : 2 канала
Расположение каналов : Front: L R
Частота : 48,0 КГц
Битовая глубина : 16 бит
Метод сжатия : С потерями
Размер потока : 173 Мбайт (2%)
Заголовок : MVO
Язык : Ukrainian
Default : Нет
Forced : Нет

Аудио #6
Идентификатор : 7
Формат : DTS
Формат/Информация : Digital Theater Systems
Режим : 16
Параметр Endianness формата : Big
Идентификатор кодека : A_DTS
Продолжительность : 2 ч. 5 м.
Вид битрейта : Постоянный
Битрейт : 1509 Кбит/сек
Каналы : 6 каналов
Расположение каналов : Front: L C R, Side: L R, LFE
Частота : 48,0 КГц
Битовая глубина : 24 бит
Метод сжатия : С потерями
Размер потока : 1,33 Гбайт (13%)
Заголовок : Originalь
Язык : English
Default : Нет
Forced : Нет

Текст #1
Идентификатор : 8
Формат : UTF-8
Идентификатор кодека : S_TEXT/UTF8
Идентификатор кодека/Информация : UTF-8 Plain Text
Язык : Russian
Default : Нет
Forced : Нет

Текст #2
Идентификатор : 9
Формат : UTF-8
Идентификатор кодека : S_TEXT/UTF8
Идентификатор кодека/Информация : UTF-8 Plain Text
Язык : English
Default : Нет
Forced : Нет

Меню
00:00:00.000 : en:Chapter 01
00:04:15.922 : en:Chapter 02
00:06:43.653 : en:Chapter 03
00:17:16.201 : en:Chapter 04
00:22:55.123 : en:Chapter 05
00:38:53.914 : en:Chapter 06
00:44:39.218 : en:Chapter 07
00:53:41.843 : en:Chapter 08
00:57:47.922 : en:Chapter 09
01:04:54.974 : en:Chapter 10
01:07:12.903 : en:Chapter 11
01:11:41.755 : en:Chapter 12
01:23:18.451 : en:Chapter 13
01:30:05.441 : en:Chapter 14
01:38:33.908 : en:Chapter 15
01:44:40.732 : en:Chapter 16
01:54:38.621 : en:Chapter 17
01:59:32.790 : en:Chapter 18
02:05:54.296 : en:Chapter 19
File: D:\Films\The.Family.Man.2000.BDRip.1080p.mkv
Duration: 02:05:58 (7558.14) - WARNING: Differs from video duration! (3.69 sec)
Track #1: video
lang: Unknown (1)
codc: V_MPEG4/ISO/AVC -> H264/AVC (22)
reso: 1920x816 -> Unknown (aka not common)
fram: 23.976044 fps
rate: 8374 kbps (8374.172852)
dura: 02:05:54 (7554.458008)
size: 7.36 GB (7907791770)
Track #2: audio (DUB)
lang: rus -> Russian (15)
codc: A_AC3 -> AC3 (2)
chan: 2 -> Stereo
samp: 48000 Hz
rate: 192 kbps (192.04)
dura: 02:05:46 (7546.11)
size: 172.75 MB (181142437)
Track #3: audio (MVO, R5)
lang: rus -> Russian (15)
codc: A_AC3 -> AC3 (2)
chan: 6 -> 5.1 Surround
samp: 48000 Hz
rate: 448 kbps (448.04)
dura: 02:05:46 (7546.11)
size: 403.04 MB (422617798)
Track #4: audio (MVO, PTP)
lang: und -> Unknown (1)
codc: A_AC3 -> AC3 (2)
chan: 2 -> Stereo
samp: 48000 Hz
rate: 192 kbps (192.04)
dura: 02:05:58 (7558.05)
size: 173.02 MB (181427411)
Track #5: audio (AVO, .)
lang: rus -> Russian (15)
codc: A_AC3 -> AC3 (2)
chan: 6 -> 5.1 Surround
samp: 48000 Hz
rate: 448 kbps (448.05)
dura: 02:05:54 (7554.34)
size: 403.49 MB (423089135)
Track #6: audio (MVO)
lang: ukr -> Unknown (1)
codc: A_AC3 -> AC3 (2)
chan: 2 -> Stereo
samp: 48000 Hz
rate: 192 kbps (192.04)
dura: 02:05:46 (7546.11)
size: 172.75 MB (181141678)
Track #7: audio (Original)
lang: Unknown (1)
codc: A_DTS -> DTS (13)
chan: 6 -> 5.1 Surround
samp: 48000 Hz
rate: 1509 kbps (1509.11)
dura: 02:05:54 (7554.48)
size: 1.33 GB (1425065882)
Track #8: subtitles
lang: rus -> Russian (15)
type: S_TEXT/UTF8 -> SRT (3)
size: 85.70 KB (87756)
Track #9: subtitles
lang: Unknown (1)
type: S_TEXT/UTF8 -> SRT (3)
size: 57.79 KB (59177)
Sizes: (check sanity)
disk: 9.99 GB (10725813934)
trac: 5.99 GB (6427455748) [based on track size]
bitr: 9.99 GB (10723060700) [based on bitrate]
tdif: 4.00 GB (4298358186) 40.07%
bdif: 2.63 MB (2753233) 0.02%

Скриншоты:

загрузка...
Правила, инструкции, FAQ!!!
Торрент  Добавлен [31 дек 2014, 00:03] Скачать торрент
Скачать торрент
[ Размер 25.67 КБ / Просмотров 6 ]

Статус
Проверен 
 
Размер  9.99 ГБ
Приватный: Нет (DHT включён)
.torrent скачан  1
Как залить торрент? | Как скачать Torrent? | Как смотреть и слушать онлайн?  


     Отправить личное сообщение
   
Страница 1 из 1
Показать сообщения за:  Поле сортировки  
Начать новую тему Ответить на тему

   Похожие торренты   Автор   Ответы   Просмотры   Последнее сообщение 
В этой теме нет новых непрочитанных сообщений. Скачать торрент Дар / The Gift (2000) BDRip 1080p | P, A

в форуме 720p | 1080p, Размер: 13.02 ГБ, Здоровье: 0%

Anonymous

0
0|0

32
0

02 янв 2014, 11:29

Anonymous Перейти к последнему сообщению

В этой теме нет новых непрочитанных сообщений. Скачать торрент Проверен Траффик / Traffic (2000) BDRip 1080p | D, P, A

в форуме 720p | 1080p, Размер: 20.83 ГБ, Здоровье: 100%

Anonymous

0
5|2

39
0

11 апр 2015, 12:34

Anonymous Перейти к последнему сообщению

В этой теме нет новых непрочитанных сообщений. Скачать торрент Проверен Ю-571 / U-571 (2000) BDRip 1080p | D, A | Open Matte

в форуме 720p | 1080p, Размер: 19.72 ГБ, Здоровье: 100%

Гость

0
23|0

51
140

20 дек 2014, 15:36

Гость Перейти к последнему сообщению

В этой теме нет новых непрочитанных сообщений. Скачать торрент Проверен Шестой день / The 6th Day (2000) BDRip 1080p

в форуме 720p | 1080p, Размер: 4.37 ГБ, Здоровье: 100%

Anonymous

0
17|3

52
370

21 сен 2014, 00:13

Anonymous Перейти к последнему сообщению

В этой теме нет новых непрочитанных сообщений. Скачать торрент Проверен Сверхновая / Supernova (2000) BDRip 1080p

в форуме 720p | 1080p, Размер: 7.83 ГБ, Здоровье: 100%

Гость

0
86|7

37
834

16 фев 2015, 22:53

Гость Перейти к последнему сообщению



Сейчас этот форум просматривают: нет зарегистрированных пользователей и гости: 1


Вы не можете начинать темы
Вы не можете отвечать на сообщения
Вы не можете редактировать свои сообщения
Вы не можете удалять свои сообщения
Вы не можете добавлять вложения

Перейти:  

!ВНИМАНИЕ!
 Ресурс не предоставляет электронные версии произведений, а занимается лишь коллекционированием и каталогизацией ссылок, присылаемых и публикуемых на форуме нашими читателями. Если вы являетесь правообладателем какого-либо представленного материала и не желаете чтобы ссылка на него находилась в нашем каталоге, свяжитесь с нами и мы незамедлительно удалим её. Файлы для обмена на трекере предоставлены пользователями сайта, и администрация не несёт ответственности за их содержание. Просьба не заливать файлы, защищенные авторскими правами, а также файлы нелегального содержания!