На всех торрентах на трекере установлена скидка на скачивание в размере 100 процентов(а).
 Возможность скачивания торрента НЕ зависит от ограничений при низком ратио, низком аплоаде, требуемом ратио или требуемом аплоаде.


Начать новую тему Ответить на тему
Статистика раздачи
Размер: 7.75 ГБ | Добавлен: 30 дек 2014, 22:26 | Скачали: 310
Сидеров: 29  [0 байт/сек]    Личеров: 5  [0 байт/сек]
Пред. тема | След. тема 

Автор
Сообщение

СообщениеДобавлено: 30 дек 2014, 22:26 

Название: Водопад Ангела
Оригинальное название: Seraphim Falls
Год выхода: 2006
Жанр: триллер, драма, вестерн
Режиссер: Дэвид Фон Энкен
В ролях: Лиам Нисон, Пирс Броснан, Майкл Уинкотт, Ксандер Беркли, Эд Лотер, Том Нунен, Кевин Дж. О’Коннор, Джон Робинсон, Анджелика Хьюстон, Энджи Хэрмон

О фильме:
Гражданская война закончена, но не для всех. Небольшой отряд наемных стрелков, возглавляемый бывшим полковником армии Конфедератов Карвером, преследует экс-капитана армии Северян Гидеона. Погоня длится не один день, Гидеон ранен и обессилен, но по-прежнему опережает своих врагов. Что пробудило столь сильную ненависть Карвера, остается загадкой...


Страна: США
Продолжительность: 01:51:51
Перевод: Профессиональный (многоголосый закадровый) CP Digital


Кодек: x264
Качество: BDRip (источник: BD Remux)
Видео: 1920x800 (2,40:1), 23.976 fps, 8630 kbps
Аудио #1: AC-3, 6 ch, 640 kbps (Rus) MVO CP Digital
Аудио #2: AC-3, 6 ch, 640 kbps (Eng) Original
Субтитры: Русские, английские. (PGS)

Скриншоты

Общее
Уникальный идентификатор : 204441337531235828243861271332620141990 (0x99CDF8296E87F0669A25350AF07905A6)
Полное имя : E:Seraphim Falls.2006.BDRip.1080p.Rus.Eng.mkv
Формат : Matroska
Версия формата : Version 2
Размер файла : 7,75 Гбайт
Продолжительность : 1 ч. 51 м.
Общий поток : 9918 Кбит/сек
Название фильма : Водопад Ангела (Seraphim Falls) 2006
Дата кодирования : UTC 2013-01-24 13:04:40
Программа кодирования : mkvmerge v5.8.0 ('No Sleep / Pillow') built on Sep 2 2012 15:37:04
Библиотека кодирования : libebml v1.2.3 + libmatroska v1.3.0

Видео
Идентификатор : 1
Формат : AVC
Формат/Информация : Advanced Video Codec
Профиль формата : High@L4.1
Параметр CABAC формата : Да
Параметр ReFrames формата : 5 кадров
Идентификатор кодека : V_MPEG4/ISO/AVC
Продолжительность : 1 ч. 51 м.
Битрейт : 8630 Кбит/сек
Ширина : 1920 пикселей
Высота : 800 пикселей
Соотношение сторон : 2,40:1
Режим частоты кадров : Постоянный
Частота кадров : 23,976 кадра/сек
Цветовое пространство : YUV
Субдискретизация насыщенности : 4:2:0
Битовая глубина : 8 бит
Тип развёртки : Прогрессивная
Бит/(Пиксели*Кадры) : 0.234
Размер потока : 6,59 Гбайт (85%)
Библиотека кодирования : x264 core 128 r2216M 198a7ea
Настройки программы : cabac=1 / ref=5 / deblock=1:0:0 / analyse=0x3:0x133 / me=umh / subme=10 / psy=1 / psy_rd=1.00:0.00 / mixed_ref=1 / me_range=32 / chroma_me=1 / trellis=2 / 8x8dct=1 / cqm=0 / deadzone=21,11 / fast_pskip=0 / chroma_qp_offset=-2 / threads=4 / lookahead_threads=1 / sliced_threads=0 / nr=0 / decimate=0 / interlaced=0 / bluray_compat=0 / constrained_intra=0 / bframes=9 / b_pyramid=2 / b_adapt=2 / b_bias=0 / direct=3 / weightb=1 / open_gop=0 / weightp=2 / keyint=240 / keyint_min=23 / scenecut=40 / intra_refresh=0 / rc=2pass / mbtree=0 / bitrate=8630 / ratetol=1.0 / qcomp=0.60 / qpmin=10 / qpmax=69 / qpstep=4 / cplxblur=20.0 / qblur=0.5 / ip_ratio=1.40 / pb_ratio=1.30 / aq=1:1.00
Язык : English
Default : Да
Forced : Нет

Аудио #1
Идентификатор : 2
Формат : AC-3
Формат/Информация : Audio Coding 3
Расширение режима : CM (complete main)
Параметр Endianness формата : Big
Идентификатор кодека : A_AC3
Продолжительность : 1 ч. 51 м.
Вид битрейта : Постоянный
Битрейт : 640 Кбит/сек
Каналы : 6 каналов
Расположение каналов : Front: L C R, Side: L R, LFE
Частота : 48,0 КГц
Битовая глубина : 16 бит
Метод сжатия : С потерями
Размер потока : 512 Мбайт (6%)
Заголовок : MVO, AC3 5.1, 640 kbps
Язык : Russian
Default : Да
Forced : Нет

Аудио #2
Идентификатор : 3
Формат : AC-3
Формат/Информация : Audio Coding 3
Расширение режима : CM (complete main)
Параметр Endianness формата : Big
Идентификатор кодека : A_AC3
Продолжительность : 1 ч. 51 м.
Вид битрейта : Постоянный
Битрейт : 640 Кбит/сек
Каналы : 6 каналов
Расположение каналов : Front: L C R, Side: L R, LFE
Частота : 48,0 КГц
Битовая глубина : 16 бит
Метод сжатия : С потерями
Размер потока : 512 Мбайт (6%)
Заголовок : Original, AC3 5.1, 640 kbps
Язык : English
Default : Нет
Forced : Нет

Текст #1
Идентификатор : 4
Формат : PGS
Режим смешивания : zlib
Идентификатор кодека : S_HDMV/PGS
Идентификатор кодека/Информация : The same subtitle format used on BDs/HD-DVDs
Язык : English
Default : Нет
Forced : Нет

Текст #2
Идентификатор : 5
Формат : PGS
Режим смешивания : zlib
Идентификатор кодека : S_HDMV/PGS
Идентификатор кодека/Информация : The same subtitle format used on BDs/HD-DVDs
Язык : Russian
Default : Нет
Forced : Нет

Меню
00:00:00.000 : en:Chapter 1
00:07:59.395 : en:Chapter 2
00:14:14.728 : en:Chapter 3
00:21:51.935 : en:Chapter 4
00:29:42.655 : en:Chapter 5
00:37:57.275 : en:Chapter 6
00:42:57.157 : en:Chapter 7
00:52:29.146 : en:Chapter 8
00:58:41.476 : en:Chapter 9
01:05:18.747 : en:Chapter 10
01:10:49.411 : en:Chapter 11
01:19:21.089 : en:Chapter 12
01:25:53.857 : en:Chapter 13
01:31:58.387 : en:Chapter 14
01:39:24.667 : en:Chapter 15
01:45:13.305 : en:Chapter 16
01:51:49.327 : en:Chapter 17
x264 [info]: frame I:1324 Avg QP:16.47 size:178656
x264 [info]: frame P:35031 Avg QP:17.77 size: 75255
x264 [info]: frame B:124554 Avg QP:19.38 size: 35005
загрузка...
Правила, инструкции, FAQ!!!
Торрент  Добавлен [30 дек 2014, 22:26] Скачать торрент
Скачать торрент
[ Размер 19.98 КБ / Просмотров 15 ]

Статус
Проверен 
 
Размер  7.75 ГБ
Приватный: Нет (DHT включён)
.torrent скачан  310
Как залить торрент? | Как скачать Torrent? | Как смотреть и слушать онлайн?  


     Отправить личное сообщение
   
Страница 1 из 1
Показать сообщения за:  Поле сортировки  
Начать новую тему Ответить на тему

   Похожие торренты   Автор   Ответы   Просмотры   Последнее сообщение 
В этой теме нет новых непрочитанных сообщений. Скачать торрент Проверен Водопад Ангела / Seraphim Falls (2006) BDRip [H.264/720р-LQ]

в форуме 720p | 1080p, Размер: 2.7 ГБ, Здоровье: 100%

Anonymous

0
150|2

36
0

10 дек 2014, 18:38

Anonymous Перейти к последнему сообщению

В этой теме нет новых непрочитанных сообщений. Скачать торрент Водопад Ангела / Водопад Серафима / Seraphim Falls (Дэвид Фон Энкен / David Von Ancken) [2006, Триллер, драма, вестерн, военный, BDRip] MVO (R5) + Original + Subs (Rus, Eng Full, Eng SDH, Ukr)

в форуме Вестерн, Размер: 2.18 ГБ, Здоровье: 100%

Anonymous

0
38|13

180
0

13 фев 2014, 11:37

Anonymous Перейти к последнему сообщению

В этой теме нет новых непрочитанных сообщений. Скачать торрент Проверен Сердце Ангела / Angel Heart (1987) BDRip 1080p

в форуме 720p | 1080p, Размер: 11.55 ГБ, Здоровье: 62%

Anonymous

0
34|54

44
60

09 ноя 2014, 09:08

Anonymous Перейти к последнему сообщению

В этой теме нет новых непрочитанных сообщений. Скачать торрент Проверен Безумные мелодии 3Д / Looney Tunes 3D (Мэттью О’Каллаган / Matthew OCallaghan) [2010, Короткометражная анимация, комедия, BDrip, 1080p] SideBySide / Горизонтальная стереопара, Coyote Falls, Fur of Flying

в форуме 3D Мультфильмы, Размер: 721.37 МБ, Здоровье: 0%

Anonymous

0
0|0

5
0

07 сен 2016, 17:30

Anonymous Перейти к последнему сообщению

В этой теме нет новых непрочитанных сообщений. Скачать торрент Проверен Darkness Falls - Hey! [2011, Indie-Pop/Electronic, Master ProRes 1080p]

в форуме Концерты (HD-Video), Размер: 4.13 ГБ, Здоровье: 100%

Anonymous

0
1|0

2
0

23 окт 2016, 14:24

Anonymous Перейти к последнему сообщению



Сейчас этот форум просматривают: нет зарегистрированных пользователей и гости: 1


Вы не можете начинать темы
Вы не можете отвечать на сообщения
Вы не можете редактировать свои сообщения
Вы не можете удалять свои сообщения
Вы не можете добавлять вложения

Перейти:  

!ВНИМАНИЕ!
 Ресурс не предоставляет электронные версии произведений, а занимается лишь коллекционированием и каталогизацией ссылок, присылаемых и публикуемых на форуме нашими читателями. Если вы являетесь правообладателем какого-либо представленного материала и не желаете чтобы ссылка на него находилась в нашем каталоге, свяжитесь с нами и мы незамедлительно удалим её. Файлы для обмена на трекере предоставлены пользователями сайта, и администрация не несёт ответственности за их содержание. Просьба не заливать файлы, защищенные авторскими правами, а также файлы нелегального содержания!