На всех торрентах на трекере установлена скидка на скачивание в размере 100 процентов(а).
 Возможность скачивания торрента НЕ зависит от ограничений при низком ратио, низком аплоаде, требуемом ратио или требуемом аплоаде.


Начать новую тему Ответить на тему
Статистика раздачи
Размер: 4.81 ГБ | Добавлен: 30 дек 2014, 21:47 | Скачали: 4374
Сидеров: 2629  [0 байт/сек]    Личеров: 1850  [0 байт/сек]
Пред. тема | След. тема 

Автор
Сообщение

СообщениеДобавлено: 30 дек 2014, 21:47 

Название: Ярость
Оригинальное название: Fury
Год выхода: 2014
Жанр: боевик, драма, военный
Режиссер: Дэвид Эйр
В ролях: Брэд Питт, Логан Лерман, Шайа ЛаБаф, Майкл Пенья, Джон Бернтал, Джейсон Айзекс, Джим Пэррак, Брэд Уильям Хенке, Кевин Вэнс, Завьер Сэмюэл
О фильме:
Стоит апрель 1945 года, и победа над немцами уже близка: союзники уверенно продвигаются вглубь вражеской территории, и оказываемое им сопротивление становится слабее день ото дня. Это, однако, совсем не значит, что на пути к победе союзные войска не потеряют еще множество людей, и многие солдаты сознают, что смерть ждет на расстоянии вытянутой руки. Среди закаленных в бою пессимистов, каждый день ведущих ожесточенные бои во имя победы, экипаж танка, на чьем дуле намалевано слово «Ярость». ...

Страна: Великобритания, США, Китай
Продолжительность: 02:14:59
Перевод: Дублированное [Чистый звук] Официальный

Кодек: MPEG-4 AVC
Качество: WEB-DL 720p
Видео: MPEG-4 AVC,1280x532, 5117 Kb/s
Аудио#1: Russian: AC3, 384 Kb/s (2 ch)
Аудио#2 English: AC3, 384 Kb/s (6 ch) / AAC (2 ch)
Дополнительно: Сохранены оригинальные чаптеры
Субтитры: Отсутствуют
Примечание: Нет вшитых субтитров на немецкую речь
Семпл

File: D:Видео 2Ярость.2014.D.WEB-DL.720p.mkv
General
Unique ID : 228438161591327787658080144189542377845 (0xABDB96EF0A1209E498E8699960642975)
Complete name : D:Видео 2Ярость.2014.D.WEB-DL.720p.mkv
Format : Matroska
Format version : Version 2
File size : 4.81 GiB
Duration : 2h 14mn
Overall bit rate : 5 117 Kbps
Encoded date : UTC 2014-12-30 05:52:48
Writing application : mkvmerge v7.4.0 ('Circles') 64bit built on Dec 12 2014 12:19:56
Writing library : libebml v1.3.0 + libmatroska v1.4.1
DURATION : 02:14:38.080000000
NUMBER_OF_FRAMES : 252440
NUMBER_OF_BYTES : 387747840
_STATISTICS_WRITING_APP : mkvmerge v7.4.0 ('Circles') 64bit built on Dec 12 2014 12:19:56
_STATISTICS_WRITING_DATE_UTC : 2014-12-30 05:52:48
_STATISTICS_TAGS : BPS DURATION NUMBER_OF_FRAMES NUMBER_OF_BYTES
Video
ID : 3
Format : AVC
Format/Info : Advanced Video Codec
Format profile : Main@L3.1
Format settings, CABAC : No
Format settings, ReFrames : 2 frames
Codec ID : V_MPEG4/ISO/AVC
Duration : 2h 14mn
Width : 1 280 pixels
Height : 532 pixels
Display aspect ratio : 2.40:1
Frame rate mode : Constant
Frame rate : 23.976 fps
Color space : YUV
Chroma subsampling : 4:2:0
Bit depth : 8 bits
Scan type : Progressive
Language : English
Default : Yes
Forced : No
Color primaries : BT.709
Transfer characteristics : BT.709
Matrix coefficients : BT.709
Audio #1
ID : 1
Format : AAC
Format/Info : Advanced Audio Codec
Format profile : LC
Codec ID : A_AAC
Duration : 2h 14mn
Channel(s) : 2 channels
Channel positions : Front: L R
Sampling rate : 48.0 KHz
Compression mode : Lossy
Language : English
Default : No
Forced : No
Audio #2
ID : 2
Format : AC-3
Format/Info : Audio Coding 3
Mode extension : CM (complete main)
Format settings, Endianness : Big
Codec ID : A_AC3
Duration : 2h 14mn
Bit rate mode : Constant
Bit rate : 384 Kbps
Channel(s) : 2 channels
Channel positions : Front: L R
Sampling rate : 48.0 KHz
Bit depth : 16 bits
Compression mode : Lossy
Stream size : 370 MiB (8%)
Default : Yes
Forced : Yes
Audio #3
ID : 4
Format : AC-3
Format/Info : Audio Coding 3
Mode extension : CM (complete main)
Format settings, Endianness : Big
Codec ID : A_AC3
Duration : 2h 14mn
Bit rate mode : Constant
Bit rate : 384 Kbps
Channel(s) : 6 channels
Channel positions : Front: L C R, Side: L R, LFE
Sampling rate : 48.0 KHz
Bit depth : 16 bits
Compression mode : Lossy
Stream size : 370 MiB (8%)
Language : English
Default : No
Forced : No
Menu
00:00:00.000 : en:1
00:07:57.000 : en:2
00:20:23.000 : en:3
00:26:37.000 : en:4
00:37:23.000 : en:5
00:43:21.000 : en:6
00:51:56.000 : en:7
01:01:16.000 : en:8
01:13:42.000 : en:9
01:18:25.000 : en:10
01:26:16.000 : en:11
01:29:45.000 : en:12
01:35:33.000 : en:13
01:48:05.000 : en:14
01:57:42.000 : en:15
02:00:34.000 : en:16
загрузка...
Правила, инструкции, FAQ!!!
Торрент  Добавлен [30 дек 2014, 21:47] Скачать торрент
Скачать торрент
[ Размер 12.72 КБ / Просмотров 8 ]

Статус
Проверен 
 
Размер  4.81 ГБ
Приватный: Нет (DHT включён)
.torrent скачан  4374
Как залить торрент? | Как скачать Torrent? | Как смотреть и слушать онлайн?  


     Отправить личное сообщение
   
Страница 1 из 1
Показать сообщения за:  Поле сортировки  
Начать новую тему Ответить на тему

   Похожие торренты   Автор   Ответы   Просмотры   Последнее сообщение 
В этой теме нет новых непрочитанных сообщений. Скачать торрент Проверен Ярость / Fury (2014) WEB-DLRip | Чистый звук

в форуме Боевики, Размер: 1.45 ГБ, Здоровье: 0%

Гость

0
0|0

327
0

30 дек 2014, 21:52

Гость Перейти к последнему сообщению

В этой теме нет новых непрочитанных сообщений. Скачать торрент Проверен Слепая ярость / Blind Fury (1989) HDTVRip 720p | D, P, P2, A

в форуме 720p | 1080p, Размер: 4.37 ГБ, Здоровье: 100%

Гость

0
30|19

120
23

28 авг 2015, 23:36

Гость Перейти к последнему сообщению

В этой теме нет новых непрочитанных сообщений. Скачать торрент Проверен Ярость / Fury (2014) WEB-DL [H.264/1080p-LQ] [Line]

в форуме 720p | 1080p, Размер: 4.38 ГБ, Здоровье: 100%

Гость

0
2022|428

123
1

30 дек 2014, 23:47

Гость Перейти к последнему сообщению

В этой теме нет новых непрочитанных сообщений. Скачать торрент Проверен Ярость / Fury (2014) BDRemux [1080p]

в форуме BD-Remux, Размер: 26.95 ГБ, Здоровье: ???%

Гость

0
0|3

283
1

17 янв 2015, 00:52

Гость Перейти к последнему сообщению

В этой теме нет новых непрочитанных сообщений. Скачать торрент Проверен Рио 2 / Rio 2 (2014) BDRip 720p | Чистый звук

в форуме Зарубежные мультфильмы (HD Video), Размер: 4.64 ГБ, Здоровье: 0%

Anonymous

0
0|0

919
0

28 июн 2014, 17:39

Anonymous Перейти к последнему сообщению



Сейчас этот форум просматривают: нет зарегистрированных пользователей и гости: 3


Вы не можете начинать темы
Вы не можете отвечать на сообщения
Вы не можете редактировать свои сообщения
Вы не можете удалять свои сообщения
Вы не можете добавлять вложения

Перейти:  

!ВНИМАНИЕ!
 Ресурс не предоставляет электронные версии произведений, а занимается лишь коллекционированием и каталогизацией ссылок, присылаемых и публикуемых на форуме нашими читателями. Если вы являетесь правообладателем какого-либо представленного материала и не желаете чтобы ссылка на него находилась в нашем каталоге, свяжитесь с нами и мы незамедлительно удалим её. Файлы для обмена на трекере предоставлены пользователями сайта, и администрация не несёт ответственности за их содержание. Просьба не заливать файлы, защищенные авторскими правами, а также файлы нелегального содержания!