На всех торрентах на трекере установлена скидка на скачивание в размере 100 процентов(а).
 Возможность скачивания торрента НЕ зависит от ограничений при низком ратио, низком аплоаде, требуемом ратио или требуемом аплоаде.


Начать новую тему Ответить на тему
Статистика раздачи
Размер: 7.76 ГБ | Добавлен: 11 апр 2013, 13:54 | Скачали: 0
Сидеров: 0  [0 байт/сек]    Личеров: 0  [0 байт/сек]
Пред. тема | След. тема 

Автор
Сообщение

СообщениеДобавлено: 11 апр 2013, 13:54 

Название: Слезы солнца
Оригинальное название: Tears of the Sun
Год выхода: 2003
Жанр: боевик, триллер, драма, военный
Режиссер: Антуан Фукуа / Antoine Fuqua

В фильме снимались: Брюс Уиллис , Моника Беллуччи , Коул Хаузер , Имонн Уолкер , Джонни Месснер , Ник Чинланд , Чарльз Ингрэм , Пол Френсис , Чад Смит , Том Скеррит

Вкратце:
Команда по выполнению спецопераций особой сложности послана в джунгли, в самое сердце Нигерии. Задача отважных ребят — разыскать и освободить из плена врача.
Когда они находят несчастную женщину в забытой богом деревеньке, выясняется, что характер операции надо срочно менять: врач заявляет, что покинет джунгли, только если вместе с ней спецбригада прихватит еще 70 человек беженцев.



Выпущено: США
Продолжительность: 02:00:55
Перевод: Дублированный + Оригинал

Формат: mkv
Кодек: x264
Качество: BDRip 1080p
Видео: 1920x800, 8294 Kbps, 23.976 fps
Аудио #1: AC-3, 6 ch, 448 kbps (Rus)
Аудио #2: AC-3, 6 ch, 448 kbps (Eng)
Субтитры: русские, английские

Общее
Уникальный идентификатор : 171963131583400917080004619597144242030 (0x815EE4FA540E786FB95BAA973129B76E)
Полное имя : Слезы солнца.2003.BDRip.1080p.Rus.Eng.mkv
Формат : Matroska
Версия формата : Version 4 / Version 2
Размер файла : 7,76 Гбайт
Продолжительность : 2 ч. 0 м.
Общий поток : 9186 Кбит/сек
Название фильма : Слезы солнца.2003
Дата кодирования : UTC 2013-04-11 09:38:41
Программа кодирования : mkvmerge v6.1.0 ('Old Devil') built on Mar 4 2013 09:10:42
Библиотека кодирования : libebml v1.3.0 + libmatroska v1.4.0

Видео
Идентификатор : 1
Формат : AVC
Формат/Информация : Advanced Video Codec
Профиль формата : High@L4.1
Параметр CABAC формата : Да
Параметр ReFrames формата : 5 кадров
Идентификатор кодека : V_MPEG4/ISO/AVC
Продолжительность : 2 ч. 0 м.
Битрейт : 8294 Кбит/сек
Ширина : 1920 пикселей
Высота : 800 пикселей
Соотношение сторон : 2,40:1
Режим частоты кадров : Постоянный
Частота кадров : 23,976 кадра/сек
Цветовое пространство : YUV
Субдискретизация насыщенности : 4:2:0
Битовая глубина : 8 бит
Тип развёртки : Прогрессивная
Бит/(Пиксели*Кадры) : 0.225
Размер потока : 6,85 Гбайт (88%)
Заголовок : Rip by Boriy
Библиотека кодирования : x264 core 130 r2273 b3065e6
Настройки программы : cabac=1 / ref=5 / deblock=1:0:0 / analyse=0x3:0x113 / me=umh / subme=10 / psy=1 / psy_rd=1.00:0.10 / mixed_ref=1 / me_range=32 / chroma_me=1 / trellis=2 / 8x8dct=1 / cqm=0 / deadzone=21,11 / fast_pskip=0 / chroma_qp_offset=-2 / threads=12 / lookahead_threads=1 / sliced_threads=0 / nr=0 / decimate=0 / interlaced=0 / bluray_compat=0 / constrained_intra=0 / bframes=5 / b_pyramid=2 / b_adapt=2 / b_bias=0 / direct=3 / weightb=1 / open_gop=0 / weightp=2 / keyint=240 / keyint_min=23 / scenecut=40 / intra_refresh=0 / rc=2pass / mbtree=0 / bitrate=8294 / ratetol=1.0 / qcomp=0.60 / qpmin=0 / qpmax=69 / qpstep=4 / cplxblur=20.0 / qblur=0.5 / ip_ratio=1.40 / pb_ratio=1.30 / aq=1:0.80
Язык : English
Default : Да
Forced : Нет

Аудио #1
Идентификатор : 2
Формат : AC-3
Формат/Информация : Audio Coding 3
Расширение режима : CM (complete main)
Параметр Endianness формата : Big
Идентификатор кодека : A_AC3
Продолжительность : 2 ч. 0 м.
Вид битрейта : Постоянный
Битрейт : 448 Кбит/сек
Каналы : 6 каналов
Расположение каналов : Front: L C R, Side: L R, LFE
Частота : 48,0 КГц
Битовая глубина : 16 бит
Метод сжатия : С потерями
Размер потока : 387 Мбайт (5%)
Заголовок : Дубляж
Язык : Russian
Default : Да
Forced : Нет

Аудио #2
Идентификатор : 3
Формат : AC-3
Формат/Информация : Audio Coding 3
Расширение режима : CM (complete main)
Параметр Endianness формата : Big
Идентификатор кодека : A_AC3
Продолжительность : 2 ч. 0 м.
Вид битрейта : Постоянный
Битрейт : 448 Кбит/сек
Каналы : 6 каналов
Расположение каналов : Front: L C R, Side: L R, LFE
Частота : 48,0 КГц
Битовая глубина : 16 бит
Метод сжатия : С потерями
Размер потока : 387 Мбайт (5%)
Заголовок : Оригинал
Язык : English
Default : Нет
Forced : Нет

Текст #1
Идентификатор : 4
Формат : UTF-8
Идентификатор кодека : S_TEXT/UTF8
Идентификатор кодека/Информация : UTF-8 Plain Text
Язык : Russian
Default : Нет
Forced : Нет

Текст #2
Идентификатор : 5
Формат : UTF-8
Идентификатор кодека : S_TEXT/UTF8
Идентификатор кодека/Информация : UTF-8 Plain Text
Язык : English
Default : Нет
Forced : Нет

Меню
00:00:00.000 : :Chapter 1
00:07:31.826 : :Chapter 2
00:15:26.467 : :Chapter 3
00:23:23.568 : :Chapter 4
00:30:12.811 : :Chapter 5
00:36:49.665 : :Chapter 6
00:45:13.544 : :Chapter 7
00:53:35.879 : :Chapter 8
01:03:13.080 : :Chapter 9
01:09:24.493 : :Chapter 10
01:16:02.891 : :Chapter 11
01:24:27.604 : :Chapter 12
01:32:14.820 : :Chapter 13
01:39:17.826 : :Chapter 14
01:44:19.503 : :Chapter 15
01:48:34.925 : :Chapter 16
загрузка...
Правила, инструкции, FAQ!!!
Торрент  Добавлен [11 апр 2013, 13:54] Скачать торрент
Скачать торрент
[ Размер 39.23 КБ / Просмотров 7 ]

Статус  
 
Размер  7.76 ГБ
Приватный: Нет (DHT включён)
.torrent скачан  0
Как залить торрент? | Как скачать Torrent? | Как смотреть и слушать онлайн?  


     Отправить личное сообщение
   
Страница 1 из 1
Показать сообщения за:  Поле сортировки  
Начать новую тему Ответить на тему

   Похожие торренты   Автор   Ответы   Просмотры   Последнее сообщение 
В этой теме нет новых непрочитанных сообщений. Скачать торрент Проверен (Pop) Мохито - Слёзы Солнца - 2015, MP3, 320 kbps

в форуме Отечественная музыка, Размер: 74.29 МБ, Здоровье: 100%

Anonymous

0
8|2

3
0

30 июл 2016, 15:18

Anonymous Перейти к последнему сообщению

В этой теме нет новых непрочитанных сообщений. Скачать торрент Проверен (Rock) Слёзы солнца - Среднеазиатские страдания - 2008, MP3, 256 kbps

в форуме Русский Рок, Размер: 75.52 МБ, Здоровье: 0%

Anonymous

0
0|0

1
0

21 авг 2016, 14:15

Anonymous Перейти к последнему сообщению

В этой теме нет новых непрочитанных сообщений. Скачать торрент Проверен Там, где плачут ангелы 2: Слезы падшего / Where Angels Cry 2: Tears of the Fallen CE (2015) РС

в форуме Приключения и квесты|я ищу, Размер: 1.16 ГБ, Здоровье: 100%

Гость

0
134|87

65
131

31 янв 2016, 19:14

Гость Перейти к последнему сообщению

В этой теме нет новых непрочитанных сообщений. Скачать торрент Проверен Люди Икс 2 / X2 (2003) BDRip 1080p

в форуме 720p | 1080p, Размер: 6.94 ГБ, Здоровье: 100%

Anonymous

0
9|7

39
34

29 окт 2014, 23:48

Anonymous Перейти к последнему сообщению

В этой теме нет новых непрочитанных сообщений. Скачать торрент Проверен Азуми / Azumi (2003) BDRip 1080p | P, L1

в форуме 720p | 1080p, Размер: 11.15 ГБ, Здоровье: ???%

Anonymous

0
0|2

50
106

09 авг 2014, 14:26

Anonymous Перейти к последнему сообщению



Сейчас этот форум просматривают: нет зарегистрированных пользователей и гости: 1


Вы не можете начинать темы
Вы не можете отвечать на сообщения
Вы не можете редактировать свои сообщения
Вы не можете удалять свои сообщения
Вы не можете добавлять вложения

Перейти:  

!ВНИМАНИЕ!
 Ресурс не предоставляет электронные версии произведений, а занимается лишь коллекционированием и каталогизацией ссылок, присылаемых и публикуемых на форуме нашими читателями. Если вы являетесь правообладателем какого-либо представленного материала и не желаете чтобы ссылка на него находилась в нашем каталоге, свяжитесь с нами и мы незамедлительно удалим её. Файлы для обмена на трекере предоставлены пользователями сайта, и администрация не несёт ответственности за их содержание. Просьба не заливать файлы, защищенные авторскими правами, а также файлы нелегального содержания!